×

¿Problemas para descargar con Mozilla, EDGE? Deshabilita la opción "Abrir vinculos en una pestaña nueva" tal como lo muestra ésta imagen.

Akira (1988) REMUX 1080p Latino

499 vistas

Información de Akira (1988) REMUX 1080p Latino

Datos de la película

  • Calidad: Full 1080p
  • Audio: Se especifica abajo de la Sinopsis
  • Subtitulos: Español Latino SRT- FORZADOS SRT
  • Resolución: 1920x1080p
  • Formato: MKV
  • Codec: H.264
  • Encoder: CinefiloCool
  • Mediainfo: Clic para Mostrar Datos Ver
  • Akira (1988) REMUX 1080p Latino-CMHDD.mkv
    Format                      : Matroska
    Format version              : Version 4
    File size                   : 34.0 GiB
    Duration                    : 2 h 4 min
    Overall bit rate mode       : Variable
    Overall bit rate            : 39.1 Mb/s
    Movie name                  : Akira (1988) CinemaniaHDD.Net
    Encoded date                : UTC 2020-05-06 02:20:49
    Writing application         : mkvmerge v42.0.0 ('Overtime') 64-bit
    Writing library             : libebml v1.3.10 + libmatroska v1.5.2
    Attachments                 : CINEMANIAHD.png

    Video
    ID                          : 1
    Format                      : AVC
    Format/Info                 : Advanced Video Codec
    Format profile              : High@L4.1
    Format settings             : CABAC / 4 Ref Frames
    Format settings, CABAC      : Yes
    Format settings, ReFrames   : 4 frames
    Codec ID                    : V_MPEG4/ISO/AVC
    Duration                    : 2 h 4 min
    Bit rate mode               : Variable
    Bit rate                    : 35.4 Mb/s
    Maximum bit rate            : 37.0 Mb/s
    Width                       : 1 920 pixels
    Height                      : 1 080 pixels
    Display aspect ratio        : 16:9
    Frame rate mode             : Constant
    Frame rate                  : 23.976 (24000/1001) FPS
    Color space                 : YUV
    Chroma subsampling          : 4:2:0
    Bit depth                   : 8 bits
    Scan type                   : Progressive
    Bits/(Pixel*Frame)          : 0.712
    Stream size                 : 30.8 GiB (90%)
    Title                       : Full HD1080p [REMUX]
    Default                     : Yes
    Forced                      : Yes

    Audio #1
    ID                          : 2
    Format                      : AC-3
    Format/Info                 : Audio Coding 3
    Commercial name             : Dolby Digital
    Codec ID                    : A_AC3
    Duration                    : 2 h 4 min
    Bit rate mode               : Constant
    Bit rate                    : 256 kb/s
    Channel(s)                  : 2 channels
    Channel layout              : L R
    Sampling rate               : 48.0 kHz
    Frame rate                  : 31.250 FPS (1536 SPF)
    Bit depth                   : 16 bits
    Compression mode            : Lossy
    Stream size                 : 228 MiB (1%)
    Title                       : AC3_2.0_Redoblaje_Esp
    Language                    : Spanish
    Service kind                : Complete Main
    Default                     : Yes
    Forced                      : Yes

    Audio #2
    ID                          : 3
    Format                      : AC-3
    Format/Info                 : Audio Coding 3
    Commercial name             : Dolby Digital
    Codec ID                    : A_AC3
    Duration                    : 2 h 4 min
    Bit rate mode               : Constant
    Bit rate                    : 256 kb/s
    Channel(s)                  : 2 channels
    Channel layout              : L R
    Sampling rate               : 48.0 kHz
    Frame rate                  : 31.250 FPS (1536 SPF)
    Bit depth                   : 16 bits
    Compression mode            : Lossy
    Stream size                 : 228 MiB (1%)
    Title                       : AC3_2.0_Origin_Esp
    Language                    : Spanish
    Service kind                : Complete Main
    Default                     : Yes
    Forced                      : No

    Audio #3
    ID                          : 4
    Format                      : DTS XLL
    Format/Info                 : Digital Theater Systems
    Commercial name             : DTS-HD Master Audio
    Codec ID                    : A_DTS
    Duration                    : 2 h 4 min
    Bit rate mode               : Variable
    Bit rate                    : 3 203 kb/s
    Channel(s)                  : 6 channels
    Channel layout              : C L R Ls Rs LFE
    Sampling rate               : 48.0 kHz
    Frame rate                  : 93.750 FPS (512 SPF)
    Bit depth                   : 24 bits
    Compression mode            : Lossless
    Stream size                 : 2.78 GiB (8%)
    Title                       : DTS-HD_5.1_Bluray_Jpn
    Language                    : Japanese
    Default                     : No
    Forced                      : No

    Text #1
    ID                          : 5
    Format                      : UTF-8
    Codec ID                    : S_TEXT/UTF8
    Codec ID/Info               : UTF-8 Plain Text
    Duration                    : 1 h 8 min
    Bit rate                    : 0 b/s
    Count of elements           : 6
    Stream size                 : 162 Bytes (0%)
    Title                       : Sub_Forzados
    Language                    : Spanish
    Default                     : Yes
    Forced                      : Yes

    Text #2
    ID                          : 6
    Format                      : UTF-8
    Codec ID                    : S_TEXT/UTF8
    Codec ID/Info               : UTF-8 Plain Text
    Duration                    : 2 h 0 min
    Bit rate                    : 43 b/s
    Count of elements           : 1107
    Stream size                 : 38.3 KiB (0%)
    Title                       : Sub_Esp
    Language                    : Spanish
    Default                     : No
    Forced                      : No

    Menu
    00:00:00.000                : en:2019 Neo Tokyo
    00:03:04.308                : en:Back Street
    00:05:25.283                : en:Joker
    00:06:58.668                : en:No. 26 Takashi
    00:10:33.506                : en:Chase
    00:12:11.730                : en:Tetsuo vs. Clown
    00:16:53.887                : en:Interrogation
    00:20:37.444                : en:Colonel's Office
    00:23:45.340                : en:Vocational School
    00:26:44.686                : en:Clown's Revenge
    00:29:10.081                : en:Illusion
    00:32:10.511                : en:Terrorist Bombing
    00:35:21.577                : en:Tetsu's Memory
    00:38:14.250                : en:Controll Room
    00:41:23.147                : en:Terrorist's Hideout
    00:45:05.702                : en:Supreme Excutives
    00:47:40.107                : en:Invasion
    00:53:16.484                : en:Battle in a Sewer
    00:57:16.850                : en:To the Baby Room
    01:02:32.206                : en:Locating Tetsuo
    01:05:30.176                : en:Tetsuo Flies
    01:08:36.403                : en:Haruki-Ya
    01:11:11.058                : en:In Prison
    01:14:30.466                : en:Ready for Battle
    01:18:12.270                : en:Nezu's Mansion
    01:21:31.428                : en:Nezu's Demise
    01:25:57.485                : en:Olympic Stadium
    01:30:47.358                : en:Frozen Capsule
    01:36:05.509                : en:Sol
    01:39:38.805                : en:Momentary Break
    01:41:54.900                : en:Stadium Showdown
    01:45:42.336                : en:Tetsuo's Mutation
    01:49:21.680                : en:Akira, Resurrected
    01:52:23.695                : en:Memories
    01:56:06.960                : en:Destruction
    01:58:25.014                : en:Return of Kaneda

  • Peso: 34.0 GiB

Sinopsis

Descargar Akira (1988) REMUX 1080p Latino. Año 2019. Neo-Tokyo es una ciudad construida sobre las ruinas de la antigua capital japonesa destruida tras la Tercera Guerra Mundial. Japón es un país al borde del colapso que sufre continuas crisis políticas. En secreto, un equipo de científicos ha reanudado por orden del ejército un experimento para encontrar a individuos que puedan controlar el arma definitiva: una fuerza denominada «la energía absoluta». Pero los habitantes de Neo-Tokyo tienen otras cosas de las que preocuparse. Uno de ellos es Kaneda, un joven pandillero líder de una banda de motoristas. Durante una pelea, su mejor amigo, Tetsuo, sufre un extraño accidente y termina ingresado en unas instalaciones militares. Allí los científicos descubrirán que es el poseedor de la energía absoluta. Pero Tetsuo, que no se resigna a convertirse en un conejillo de indias, muy pronto se convertirá en la amenaza más grande que el mundo ha conocido.

Audio Español Latino AC3 2.0 + AC3 2.0 Redoblaje – DTS-HD 5.1 Japones

Nota:

Se Remplazo Pista TrueHD 5.1 Japones por DTS-HD Por tema de Tamaño de Archivo ya que esta tiene un muestreo de 192kHz elevando bastante su peso, pero si se desea tener la pista Original, se incluye por separado en el paste

Ficha técnica

Video trailer de la película

Enlaces de descarga

Rip de Bluray

Descargar Akira (1988) REMUX 1080p Latino




Aportes de DPeliculasHDmega la pass es:dpeliculashdmega.org Aportes de CinemaniaHD la pass es:cinemaniahdd.com
Guardado en : Acción , Ciencia ficción , Drama , Remux

Películas relacionadas

  • After: Amor infinito (2022) AMZN WEB-DL 1080p Latino

    After: Amor infinito (2022) AMZN WEB-DL 1080p Latino

    2022
    After: Amor infinito (2022) AMZN WEB-DL 1080p Latino

    1h 35m 2022

    Descargar After: Amor infinito (2022) AMZN WEB-DL 1080p Latino. El amor de Tessa y Hardin nunca ha sido...

    Director: Castille Landon

    Género: Drama

    Actores: Velizar Nikolaev Biney

  • El Cuartel Secreto (2022) WEB-DL 4K UHD HDR Latino

    El Cuartel Secreto (2022) WEB-DL 4K UHD HDR Latino

    2022
    El Cuartel Secreto (2022) WEB-DL 4K UHD HDR Latino

    1h 44m 2022

    Descargar El Cuartel Secreto (2022) WEB-DL 4K UHD HDR Latino. Mientras pasan el rato después de la escuela,...

    Director: Henry Joost

    Género: 4K HDR

    Actores: Zeb Slone

  • El Cuartel Secreto (2022) WEB-DL 1080p Latino

    El Cuartel Secreto (2022) WEB-DL 1080p Latino

    2022
    El Cuartel Secreto (2022) WEB-DL 1080p Latino

    1h 44m 2022

    Descargar El Cuartel Secreto (2022) WEB-DL 1080p Latino. Mientras pasan el rato después de la escuela,...

    Director: Henry Joost

    Género: Acción

    Actores: Zeb Slone

  • Men in Black (1997) REMUX 4K HDR Latino – CMHDD

    Men in Black (1997) REMUX 4K HDR Latino – CMHDD

    1997
    Men in Black (1997) REMUX 4K HDR Latino – CMHDD

    1h 34m 1997

    Durante muchos años los extraterrestres han vivido en la Tierra, mezclados con los humanos, sin que...

    Director: Tyrone S. Walker

    Género: Acción

    Actores: Willie C. Carpenter

  • Blonde (2022) NF WEB-DL 1080p Latino

    Blonde (2022) NF WEB-DL 1080p Latino

    2022
    Blonde (2022) NF WEB-DL 1080p Latino

    2h 46m 2022

    Descargar Blonde (2022) NF WEB-DL 1080p Latino. Basada en el bestseller de la cinco veces finalista al...

    Director: Kristin Bree Calabrese

    Género: Drama

    Actores: Xavier Samuel

descargar Akira (1988) REMUX 1080p Latino Full 1080p 1080p gratis, Akira (1988) REMUX 1080p Latino Full 1080p mega 1 link, Akira (1988) REMUX 1080p Latino Full 1080p pelicula completa, descargar Akira (1988) REMUX 1080p Latino Full 1080p gratis en mega.

Akira (1988) REMUX 1080p Latino pelicula full hd, Akira (1988) REMUX 1080p Latino mega latino, Akira (1988) REMUX 1080p Latino 4k latino, Akira (1988) REMUX 1080p Latino pelicula completa, Akira (1988) REMUX 1080p Latino descargar gratis, descargar Akira (1988) REMUX 1080p Latino pelicula latino, Akira (1988) REMUX 1080p Latino 1 link mega, Akira (1988) REMUX 1080p Latino 1 link google drive, Akira (1988) REMUX 1080p Latino hd 1080p latino.
Comentarios 0