×

¿Problemas para descargar con Mozilla, EDGE? Deshabilita la opción "Abrir vinculos en una pestaña nueva" tal como lo muestra ésta imagen.

Akira (1988) Full HD 1080p Latino

519 vistas

Información de Akira (1988) Full HD 1080p Latino

Datos de la película

  • Calidad: Full 1080p
  • Audio: Se especifica abajo de la Sinopsis
  • Subtitulos: Español Latino SRT- FORZADOS SRT
  • Resolución: 1920x1080p
  • Formato: MKV
  • Codec: H.264
  • Encoder: CinefiloCool
  • Mediainfo: Clic para Mostrar Datos Ver
  • Akira (1988) Full HD 1080p Latino-CMHDD.mkv
    Format                      : Matroska
    Format version              : Version 4
    File size                   : 9.44 GiB
    Duration                    : 2 h 4 min
    Overall bit rate            : 10.9 Mb/s
    Movie name                  : Akira (1988) CinemaniaHDD.Net
    Encoded date                : UTC 2020-05-06 03:09:40
    Writing application         : mkvmerge v42.0.0 ('Overtime') 64-bit
    Writing library             : libebml v1.3.10 + libmatroska v1.5.2
    Attachments                 : CINEMANIAHD.png

    Video
    ID                          : 1
    Format                      : AVC
    Format/Info                 : Advanced Video Codec
    Format profile              : High@L4.1
    Format settings             : CABAC / 4 Ref Frames
    Format settings, CABAC      : Yes
    Format settings, ReFrames   : 4 frames
    Codec ID                    : V_MPEG4/ISO/AVC
    Duration                    : 2 h 4 min
    Bit rate                    : 8 829 kb/s
    Width                       : 1 920 pixels
    Height                      : 1 080 pixels
    Display aspect ratio        : 16:9
    Frame rate mode             : Constant
    Frame rate                  : 23.976 (24000/1001) FPS
    Color space                 : YUV
    Chroma subsampling          : 4:2:0
    Bit depth                   : 8 bits
    Scan type                   : Progressive
    Bits/(Pixel*Frame)          : 0.178
    Stream size                 : 7.68 GiB (81%)
    Title                       : Full HD1080p [Bluray]
    Writing library             : x264 core 157 r2935 545de2f
    Encoding settings           : cabac=1 / ref=4 / deblock=1:0:0 / analyse=0x3:0x133 / me=tesa / subme=11 / psy=1 / psy_rd=1.00:0.00 / mixed_ref=1 / me_range=24 / chroma_me=1 / trellis=2 / 8x8dct=1 / cqm=0 / deadzone=21,11 / fast_pskip=0 / chroma_qp_offset=-2 / threads=34 / lookahead_threads=8 / sliced_threads=0 / nr=0 / decimate=1 / interlaced=0 / bluray_compat=0 / constrained_intra=0 / bframes=16 / b_pyramid=2 / b_adapt=2 / b_bias=0 / direct=3 / weightb=1 / open_gop=0 / weightp=2 / keyint=240 / keyint_min=24 / scenecut=40 / intra_refresh=0 / rc_lookahead=60 / rc=crf / mbtree=1 / crf=20.0 / qcomp=0.60 / qpmin=0 / qpmax=69 / qpstep=4 / vbv_maxrate=62500 / vbv_bufsize=78125 / crf_max=0.0 / nal_hrd=none / filler=0 / ip_ratio=1.40 / aq=1:1.00
    Default                     : Yes
    Forced                      : Yes
    Color range                 : Limited
    Color primaries             : BT.709
    Transfer characteristics    : BT.709
    Matrix coefficients         : BT.709

    Audio #1
    ID                          : 2
    Format                      : AC-3
    Format/Info                 : Audio Coding 3
    Commercial name             : Dolby Digital
    Codec ID                    : A_AC3
    Duration                    : 2 h 4 min
    Bit rate mode               : Constant
    Bit rate                    : 256 kb/s
    Channel(s)                  : 2 channels
    Channel layout              : L R
    Sampling rate               : 48.0 kHz
    Frame rate                  : 31.250 FPS (1536 SPF)
    Bit depth                   : 16 bits
    Compression mode            : Lossy
    Stream size                 : 228 MiB (2%)
    Title                       : AC3_2.0_Redoblaje_Esp
    Language                    : Spanish
    Service kind                : Complete Main
    Default                     : Yes
    Forced                      : Yes

    Audio #2
    ID                          : 3
    Format                      : AC-3
    Format/Info                 : Audio Coding 3
    Commercial name             : Dolby Digital
    Codec ID                    : A_AC3
    Duration                    : 2 h 4 min
    Bit rate mode               : Constant
    Bit rate                    : 256 kb/s
    Channel(s)                  : 2 channels
    Channel layout              : L R
    Sampling rate               : 48.0 kHz
    Frame rate                  : 31.250 FPS (1536 SPF)
    Bit depth                   : 16 bits
    Compression mode            : Lossy
    Stream size                 : 228 MiB (2%)
    Title                       : AC3_2.0_Origin_Esp
    Language                    : Spanish
    Service kind                : Complete Main
    Default                     : No
    Forced                      : No

    Audio #3
    ID                          : 4
    Format                      : DTS
    Format/Info                 : Digital Theater Systems
    Codec ID                    : A_DTS
    Duration                    : 2 h 4 min
    Bit rate mode               : Constant
    Bit rate                    : 1 509 kb/s
    Channel(s)                  : 6 channels
    Channel layout              : C L R Ls Rs LFE
    Sampling rate               : 48.0 kHz
    Frame rate                  : 93.750 FPS (512 SPF)
    Bit depth                   : 24 bits
    Compression mode            : Lossy
    Stream size                 : 1.31 GiB (14%)
    Title                       : DTS_5.1_Bluray_Jpn
    Language                    : Japanese
    Default                     : No
    Forced                      : No

    Text #1
    ID                          : 5
    Format                      : UTF-8
    Codec ID                    : S_TEXT/UTF8
    Codec ID/Info               : UTF-8 Plain Text
    Duration                    : 1 h 8 min
    Bit rate                    : 0 b/s
    Count of elements           : 6
    Stream size                 : 162 Bytes (0%)
    Title                       : Sub_Forzados
    Language                    : Spanish
    Default                     : Yes
    Forced                      : Yes

    Text #2
    ID                          : 6
    Format                      : UTF-8
    Codec ID                    : S_TEXT/UTF8
    Codec ID/Info               : UTF-8 Plain Text
    Duration                    : 2 h 0 min
    Bit rate                    : 43 b/s
    Count of elements           : 1107
    Stream size                 : 38.3 KiB (0%)
    Title                       : Sub_Esp
    Language                    : Spanish
    Default                     : No
    Forced                      : No

    Menu
    00:00:00.000                : en:2019 Neo Tokyo
    00:03:04.308                : en:Back Street
    00:05:25.283                : en:Joker
    00:06:58.668                : en:No. 26 Takashi
    00:10:33.506                : en:Chase
    00:12:11.730                : en:Tetsuo vs. Clown
    00:16:53.887                : en:Interrogation
    00:20:37.444                : en:Colonel's Office
    00:23:45.340                : en:Vocational School
    00:26:44.686                : en:Clown's Revenge
    00:29:10.081                : en:Illusion
    00:32:10.511                : en:Terrorist Bombing
    00:35:21.577                : en:Tetsu's Memory
    00:38:14.250                : en:Controll Room
    00:41:23.147                : en:Terrorist's Hideout
    00:45:05.702                : en:Supreme Excutives
    00:47:40.107                : en:Invasion
    00:53:16.484                : en:Battle in a Sewer
    00:57:16.850                : en:To the Baby Room
    01:02:32.206                : en:Locating Tetsuo
    01:05:30.176                : en:Tetsuo Flies
    01:08:36.403                : en:Haruki-Ya
    01:11:11.058                : en:In Prison
    01:14:30.466                : en:Ready for Battle
    01:18:12.270                : en:Nezu's Mansion
    01:21:31.428                : en:Nezu's Demise
    01:25:57.485                : en:Olympic Stadium
    01:30:47.358                : en:Frozen Capsule
    01:36:05.509                : en:Sol
    01:39:38.805                : en:Momentary Break
    01:41:54.900                : en:Stadium Showdown
    01:45:42.336                : en:Tetsuo's Mutation
    01:49:21.680                : en:Akira, Resurrected
    01:52:23.695                : en:Memories
    01:56:06.960                : en:Destruction
    01:58:25.014                : en:Return of Kaneda

  • Peso: 9.44 GiB

Sinopsis

Descargar Akira (1988) Full HD 1080p Latino. Año 2019. Neo-Tokyo es una ciudad construida sobre las ruinas de la antigua capital japonesa destruida tras la Tercera Guerra Mundial. Japón es un país al borde del colapso que sufre continuas crisis políticas. En secreto, un equipo de científicos ha reanudado por orden del ejército un experimento para encontrar a individuos que puedan controlar el arma definitiva: una fuerza denominada «la energía absoluta». Pero los habitantes de Neo-Tokyo tienen otras cosas de las que preocuparse. Uno de ellos es Kaneda, un joven pandillero líder de una banda de motoristas. Durante una pelea, su mejor amigo, Tetsuo, sufre un extraño accidente y termina ingresado en unas instalaciones militares. Allí los científicos descubrirán que es el poseedor de la energía absoluta. Pero Tetsuo, que no se resigna a convertirse en un conejillo de indias, muy pronto se convertirá en la amenaza más grande que el mundo ha conocido.

Audio Español Latino AC3 2.0 + AC3 2.0 Redoblaje – DTS 5.1 Japones

Nota:

Se Remplazo Pista TrueHD 5.1 Japones por DTS-HD Por tema de Tamaño de Archivo ya que esta tiene un muestreo de 192kHz elevando bastante su peso, pero si se desea tener la pista Original, se incluye por separado en el paste

Ficha técnica

Video trailer de la película

Enlaces de descarga

Rip de Bluray

Descargar Akira (1988) Full HD 1080p Latino




Aportes de DPeliculasHDmega la pass es:dpeliculashdmega.org Aportes de CinemaniaHD la pass es:cinemaniahdd.com

Películas relacionadas

descargar Akira (1988) Full HD 1080p Latino Full 1080p 1080p gratis, Akira (1988) Full HD 1080p Latino Full 1080p mega 1 link, Akira (1988) Full HD 1080p Latino Full 1080p pelicula completa, descargar Akira (1988) Full HD 1080p Latino Full 1080p gratis en mega.

Akira (1988) Full HD 1080p Latino pelicula full hd, Akira (1988) Full HD 1080p Latino mega latino, Akira (1988) Full HD 1080p Latino 4k latino, Akira (1988) Full HD 1080p Latino pelicula completa, Akira (1988) Full HD 1080p Latino descargar gratis, descargar Akira (1988) Full HD 1080p Latino pelicula latino, Akira (1988) Full HD 1080p Latino 1 link mega, Akira (1988) Full HD 1080p Latino 1 link google drive, Akira (1988) Full HD 1080p Latino hd 1080p latino.
Comentarios 0