×

¿Problemas para descargar con Mozilla, EDGE? Deshabilita la opción "Abrir vinculos en una pestaña nueva" tal como lo muestra ésta imagen.

Akira (1988) 4K UHD HDR Latino

751 vistas

Información de Akira (1988) 4K UHD HDR Latino

Datos de la película

  • Calidad: 4K HDR
  • Audio: Se especifica abajo de la Sinopsis
  • Subtitulos: Español Latino SRT- FORZADOS SRT
  • Resolución: 3840x2074p
  • Formato: MKV
  • Codec: HEVC
  • Encoder: CinefiloCool
  • Mediainfo: Clic para Mostrar Datos Ver
  • Akira (1988) UHD HDR Latino-CMHDD.mkv
    Format                      : Matroska
    Format version              : Version 4
    File size                   : 9.31 GiB
    Duration                    : 2 h 4 min
    Overall bit rate            : 10.7 Mb/s
    Movie name                  : Akira (1988) CinemaniaHDD.Net
    Encoded date                : UTC 2020-05-06 03:28:43
    Writing application         : mkvmerge v42.0.0 ('Overtime') 64-bit
    Writing library             : libebml v1.3.10 + libmatroska v1.5.2
    Attachments                 : CINEMANIAHD.png

    Video
    ID                          : 1
    Format                      : HEVC
    Format/Info                 : High Efficiency Video Coding
    Commercial name             : HDR10
    Format profile              : Main 10@L5.1@High
    Codec ID                    : V_MPEGH/ISO/HEVC
    Duration                    : 2 h 4 min
    Bit rate                    : 9 531 kb/s
    Width                       : 3 840 pixels
    Height                      : 2 074 pixels
    Display aspect ratio        : 1.85:1
    Frame rate mode             : Constant
    Frame rate                  : 23.976 (24000/1001) FPS
    Color space                 : YUV
    Chroma subsampling          : 4:2:0 (Type 2)
    Bit depth                   : 10 bits
    Bits/(Pixel*Frame)          : 0.050
    Stream size                 : 8.31 GiB (89%)
    Title                       : 2160p HDR [Bluray]
    Writing library             : x265 3.0_Au+10-74a8672ea4f7:[Windows][GCC 8.2.1][64 bit] 10bit
    Encoding settings           : cpuid=1111039 / frame-threads=6 / numa-pools=24,24,24,24 / wpp / no-pmode / no-pme / no-psnr / no-ssim / log-level=2 / input-csp=1 / input-res=3840x2074 / interlace=0 / total-frames=0 / level-idc=51 / high-tier=1 / uhd-bd=0 / ref=3 / no-allow-non-conformance / repeat-headers / annexb / aud / hrd / info / hash=0 / no-temporal-layers / no-open-gop / min-keyint=1 / keyint=24 / gop-lookahead=0 / bframes=6 / b-adapt=2 / b-pyramid / bframe-bias=0 / rc-lookahead=25 / lookahead-slices=4 / scenecut=40 / radl=0 / no-splice / no-intra-refresh / ctu=64 / min-cu-size=8 / no-rect / no-amp / max-tu-size=32 / tu-inter-depth=1 / tu-intra-depth=1 / limit-tu=0 / rdoq-level=0 / dynamic-rd=0.00 / no-ssim-rd / signhide / no-tskip / nr-intra=0 / nr-inter=0 / no-constrained-intra / strong-intra-smoothing / max-merge=2 / limit-refs=3 / no-limit-modes / me=1 / subme=2 / merange=57 / temporal-mvp / weightp / no-weightb / no-analyze-src-pics / deblock=1:1 / no-sao / no-sao-non-deblock / rd=3 / no-early-skip / rskip / no-fast-intra / no-tskip-fast / no-cu-lossless / no-b-intra / no-splitrd-skip / rdpenalty=0 / psy-rd=0.40 / psy-rdoq=0.00 / no-rd-refine / no-lossless / cbqpoffs=0 / crqpoffs=0 / rc=crf / crf=14.0 / qcomp=0.60 / qpstep=4 / stats-write=0 / stats-read=0 / vbv-maxrate=160000 / vbv-bufsize=160000 / vbv-init=0.9 / crf-max=0.0 / crf-min=0.0 / ipratio=1.40 / pbratio=1.30 / aq-mode=1 / aq-strength=0.40 / cutree / zone-count=0 / no-strict-cbr / qg-size=32 / no-rc-grain / qpmax=69 / qpmin=0 / no-const-vbv / sar=1 / overscan=0 / videoformat=5 / range=0 / colorprim=9 / transfer=16 / colormatrix=9 / chromaloc=1 / chromaloc-top=2 / chromaloc-bottom=2 / display-window=0 / master-display=G(8500,39850)B(6550,2300)R(35400,14600)WP(15635,16450)L(10000000,50) / max-cll=1000,369 / min-luma=0 / max-luma=1023 / log2-max-poc-lsb=8 / vui-timing-info / vui-hrd-info / slices=1 / opt-qp-pps / opt-ref-list-length-pps / no-multi-pass-opt-rps / scenecut-bias=0.05 / no-opt-cu-delta-qp / no-aq-motion / hdr / hdr-opt / no-dhdr10-opt / no-idr-recovery-sei / analysis-reuse-level=5 / scale-factor=0 / refine-intra=0 / refine-inter=0 / refine-mv=0 / refine-ctu-distortion=0 / no-limit-sao / ctu-info=0 / no-lowpass-dct / refine-analysis-type=0 / copy-pic=1 / max-ausize-factor=1.0 / no-dynamic-refine / no-single-sei / no-hevc-aq / no-svt / qp-adaptation-range=1.00
    Default                     : Yes
    Forced                      : Yes
    Color range                 : Limited
    Color primaries             : BT.2020
    Transfer characteristics    : PQ
    Matrix coefficients         : BT.2020 non-constant
    Mastering display color pri : BT.2020
    Mastering display luminance : min: 0.0050 cd/m2, max: 1000 cd/m2
    Maximum Content Light Level : 1000 cd/m2
    Maximum Frame-Average Light : 369 cd/m2

    Audio #1
    ID                          : 2
    Format                      : AC-3
    Format/Info                 : Audio Coding 3
    Commercial name             : Dolby Digital
    Codec ID                    : A_AC3
    Duration                    : 2 h 4 min
    Bit rate mode               : Constant
    Bit rate                    : 256 kb/s
    Channel(s)                  : 2 channels
    Channel layout              : L R
    Sampling rate               : 48.0 kHz
    Frame rate                  : 31.250 FPS (1536 SPF)
    Bit depth                   : 16 bits
    Compression mode            : Lossy
    Delay relative to video     : 23 ms
    Stream size                 : 228 MiB (2%)
    Title                       : AC3_2.0_Redoblaje_Esp
    Language                    : Spanish
    Service kind                : Complete Main
    Default                     : Yes
    Forced                      : Yes

    Audio #2
    ID                          : 3
    Format                      : AC-3
    Format/Info                 : Audio Coding 3
    Commercial name             : Dolby Digital
    Codec ID                    : A_AC3
    Duration                    : 2 h 4 min
    Bit rate mode               : Constant
    Bit rate                    : 256 kb/s
    Channel(s)                  : 2 channels
    Channel layout              : L R
    Sampling rate               : 48.0 kHz
    Frame rate                  : 31.250 FPS (1536 SPF)
    Bit depth                   : 16 bits
    Compression mode            : Lossy
    Delay relative to video     : 23 ms
    Stream size                 : 228 MiB (2%)
    Title                       : AC3_2.0_Origin_Esp
    Language                    : Spanish
    Service kind                : Complete Main
    Default                     : No
    Forced                      : No

    Audio #3
    ID                          : 4
    Format                      : AC-3
    Format/Info                 : Audio Coding 3
    Commercial name             : Dolby Digital
    Codec ID                    : A_AC3
    Duration                    : 2 h 4 min
    Bit rate mode               : Constant
    Bit rate                    : 640 kb/s
    Channel(s)                  : 6 channels
    Channel layout              : L R C LFE Ls Rs
    Sampling rate               : 48.0 kHz
    Frame rate                  : 31.250 FPS (1536 SPF)
    Bit depth                   : 16 bits
    Compression mode            : Lossy
    Stream size                 : 571 MiB (6%)
    Language                    : Japanese
    Service kind                : Complete Main
    Default                     : No
    Forced                      : No

    Text #1
    ID                          : 5
    Format                      : UTF-8
    Codec ID                    : S_TEXT/UTF8
    Codec ID/Info               : UTF-8 Plain Text
    Duration                    : 1 h 8 min
    Bit rate                    : 0 b/s
    Count of elements           : 6
    Stream size                 : 162 Bytes (0%)
    Title                       : Sub_Forzados
    Language                    : Spanish
    Default                     : Yes
    Forced                      : Yes

    Text #2
    ID                          : 6
    Format                      : UTF-8
    Codec ID                    : S_TEXT/UTF8
    Codec ID/Info               : UTF-8 Plain Text
    Duration                    : 2 h 0 min
    Bit rate                    : 43 b/s
    Count of elements           : 1107
    Stream size                 : 38.3 KiB (0%)
    Title                       : Sub_Esp
    Language                    : Spanish
    Default                     : No
    Forced                      : No

    Menu
    00:00:00.000                : en:2019 Neo Tokyo
    00:03:04.308                : en:Back Street
    00:05:25.283                : en:Joker
    00:06:58.668                : en:No. 26 Takashi
    00:10:33.506                : en:Chase
    00:12:11.730                : en:Tetsuo vs. Clown
    00:16:53.887                : en:Interrogation
    00:20:37.444                : en:Colonel's Office
    00:23:45.340                : en:Vocational School
    00:26:44.686                : en:Clown's Revenge
    00:29:10.081                : en:Illusion
    00:32:10.511                : en:Terrorist Bombing
    00:35:21.577                : en:Tetsu's Memory
    00:38:14.250                : en:Controll Room
    00:41:23.147                : en:Terrorist's Hideout
    00:45:05.702                : en:Supreme Excutives
    00:47:40.107                : en:Invasion
    00:53:16.484                : en:Battle in a Sewer
    00:57:16.850                : en:To the Baby Room
    01:02:32.206                : en:Locating Tetsuo
    01:05:30.176                : en:Tetsuo Flies
    01:08:36.403                : en:Haruki-Ya
    01:11:11.058                : en:In Prison
    01:14:30.466                : en:Ready for Battle
    01:18:12.270                : en:Nezu's Mansion
    01:21:31.428                : en:Nezu's Demise
    01:25:57.485                : en:Olympic Stadium
    01:30:47.358                : en:Frozen Capsule
    01:36:05.509                : en:Sol
    01:39:38.805                : en:Momentary Break
    01:41:54.900                : en:Stadium Showdown
    01:45:42.336                : en:Tetsuo's Mutation
    01:49:21.680                : en:Akira, Resurrected
    01:52:23.695                : en:Memories
    01:56:06.960                : en:Destruction
    01:58:25.014                : en:Return of Kaneda

  • Peso: 9.31 GiB

Sinopsis

Descargar Akira (1988) 4K UHD HDR Latino. Año 2019. Neo-Tokyo es una ciudad construida sobre las ruinas de la antigua capital japonesa destruida tras la Tercera Guerra Mundial. Japón es un país al borde del colapso que sufre continuas crisis políticas. En secreto, un equipo de científicos ha reanudado por orden del ejército un experimento para encontrar a individuos que puedan controlar el arma definitiva: una fuerza denominada «la energía absoluta». Pero los habitantes de Neo-Tokyo tienen otras cosas de las que preocuparse. Uno de ellos es Kaneda, un joven pandillero líder de una banda de motoristas. Durante una pelea, su mejor amigo, Tetsuo, sufre un extraño accidente y termina ingresado en unas instalaciones militares. Allí los científicos descubrirán que es el poseedor de la energía absoluta. Pero Tetsuo, que no se resigna a convertirse en un conejillo de indias, muy pronto se convertirá en la amenaza más grande que el mundo ha conocido.

Audio Español Latino AC3 2.0 + AC3 2.0 Redoblaje – AC3 5.1 Japones

Nota:

Pista Original TrueHD 5.1 Japones se incluye por separado en el paste

Ficha técnica

Video trailer de la película

Enlaces de descarga

Rip de Bluray

Descargar Akira (1988) 4K UHD HDR Latino




Aportes de DPeliculasHDmega la pass es:dpeliculashdmega.org Aportes de CinemaniaHD la pass es:cinemaniahdd.com
Guardado en : 4K HDR , 4K UHD , Acción , Ciencia ficción , Drama

Películas relacionadas

  • Stromboli (2022) NF WEB-DL 1080p Latino

    Stromboli (2022) NF WEB-DL 1080p Latino

    2022
    Stromboli (2022) NF WEB-DL 1080p Latino

    1h 26m 2022

    Descargar Stromboli (2022) NF WEB-DL 1080p Latino. Sara, una mujer que se ha divorciado recientemente,...

    Director: Michiel van Erp

    Género: Drama

    Actores: Tim McInnerny

  • Infiesto (2023) NF WEB-DL 1080p Castellano

    Infiesto (2023) NF WEB-DL 1080p Castellano

    2023
    Infiesto (2023) NF WEB-DL 1080p Castellano

    1h 36m 2023

    Descargar Infiesto (2023) NF WEB-DL 1080p Castellano. Mientras el coronavirus trastoca sus vidas, dos...

    Director: Patxi Amezcua

    Género: Crimen

    Actores: Luis Zahera

  • Espiritu Libre (2023) NF WEB-DL 1080p Latino

    Espiritu Libre (2023) NF WEB-DL 1080p Latino

    2023
    Espiritu Libre (2023) NF WEB-DL 1080p Latino

    1h 49m 2023

    Descargar Espiritu Libre (2023) NF WEB-DL 1080p Latino. La película se basa en la increíble historia...

    Director: Sarah Spillane

    Género: Aventura

    Actores: Vivien Turner

  • Un mundo extraño (2022) HD BDRip 1080p Latino

    Un mundo extraño (2022) HD BDRip 1080p Latino

    2022
    Un mundo extraño (2022) HD BDRip 1080p Latino

    1h 42m 2022

    Descargar Un mundo extraño (2022) HD BDRip 1080p Latino. Los Clades son una familia conocida en todo...

    Director: Thai Bettistea

    Género: Animación

    Actores: Reed Buck

descargar Akira (1988) 4K UHD HDR Latino 4K HDR 1080p gratis, Akira (1988) 4K UHD HDR Latino 4K HDR mega 1 link, Akira (1988) 4K UHD HDR Latino 4K HDR pelicula completa, descargar Akira (1988) 4K UHD HDR Latino 4K HDR gratis en mega.

Akira (1988) 4K UHD HDR Latino pelicula full hd, Akira (1988) 4K UHD HDR Latino mega latino, Akira (1988) 4K UHD HDR Latino 4k latino, Akira (1988) 4K UHD HDR Latino pelicula completa, Akira (1988) 4K UHD HDR Latino descargar gratis, descargar Akira (1988) 4K UHD HDR Latino pelicula latino, Akira (1988) 4K UHD HDR Latino 1 link mega, Akira (1988) 4K UHD HDR Latino 1 link google drive, Akira (1988) 4K UHD HDR Latino hd 1080p latino.
Comentarios 1