×

¿Problemas para descargar con Mozilla, EDGE? Deshabilita la opción "Abrir vinculos en una pestaña nueva" tal como lo muestra ésta imagen.

Ajin: Semi-Humano (2017) AMZN WEB-DL 1080p Latino

49 vistas

Información de Ajin: Semi-Humano (2017) AMZN WEB-DL 1080p Latino

Datos de la película

  • Calidad: WEBDL
  • Audio: Se especifica abajo de la Sinopsis
  • Subtitulos: Español Latino SRT- FORZADOS SRT
  • Resolución: 1920x800p
  • Formato: MKV
  • Codec: H.264
  • Encoder: Melkor
  • Mediainfo: Clic para Mostrar Datos Ver
  • Ajin Semi-Humano (2017) AMZN WebDL 1080p Latino.mkv
    Format                      : Matroska
    Format version              : Version 4
    File size                   : 8.03 GiB
    Duration                    : 1 h 48 min
    Overall bit rate            : 10.6 Mb/s
    Movie name                  : Ajin. Demi-Human (2017) CinemaniaHDD.Net
    Encoded date                : UTC 2022-10-07 05:45:19
    Writing application         : mkvmerge v56.1.0 ('My Friend') 64-bit
    Writing library             : libebml v1.4.2 + libmatroska v1.6.4
    Attachments                 : CINEMANIAHD.png

    Video
    ID                          : 1
    Format                      : AVC
    Format/Info                 : Advanced Video Codec
    Format profile              : High@L4
    Format settings             : CABAC / 4 Ref Frames
    Format settings, CABAC      : Yes
    Format settings, Reference  : 4 frames
    Codec ID                    : V_MPEG4/ISO/AVC
    Duration                    : 1 h 48 min
    Bit rate mode               : Constant
    Bit rate                    : 8 684 kb/s
    Nominal bit rate            : 10 000 kb/s
    Width                       : 1 920 pixels
    Height                      : 800 pixels
    Display aspect ratio        : 2.40:1
    Frame rate mode             : Constant
    Frame rate                  : 23.976 (24000/1001) FPS
    Color space                 : YUV
    Chroma subsampling          : 4:2:0
    Bit depth                   : 8 bits
    Scan type                   : Progressive
    Bits/(Pixel*Frame)          : 0.236
    Stream size                 : 6.57 GiB (82%)
    Title                       : Web HD1080p [CinemaniaHDD]
    Default                     : Yes
    Forced                      : Yes
    Color range                 : Limited
    Color primaries             : BT.709
    Transfer characteristics    : BT.709
    Matrix coefficients         : BT.709

    Audio #1
    ID                          : 2
    Format                      : AC-3
    Format/Info                 : Audio Coding 3
    Commercial name             : Dolby Digital
    Codec ID                    : A_AC3
    Duration                    : 1 h 48 min
    Bit rate mode               : Constant
    Bit rate                    : 640 kb/s
    Channel(s)                  : 6 channels
    Channel layout              : L R C LFE Ls Rs
    Sampling rate               : 48.0 kHz
    Frame rate                  : 31.250 FPS (1536 SPF)
    Compression mode            : Lossy
    Stream size                 : 496 MiB (6%)
    Title                       : Español Latino AC3 [CinemaniaHDD]
    Language                    : Spanish
    Service kind                : Complete Main
    Default                     : Yes
    Forced                      : Yes

    Audio #2
    ID                          : 3
    Format                      : E-AC-3
    Format/Info                 : Enhanced AC-3
    Commercial name             : Dolby Digital Plus
    Codec ID                    : A_EAC3
    Duration                    : 1 h 48 min
    Bit rate mode               : Constant
    Bit rate                    : 640 kb/s
    Channel(s)                  : 6 channels
    Channel layout              : L R C LFE Ls Rs
    Sampling rate               : 48.0 kHz
    Frame rate                  : 31.250 FPS (1536 SPF)
    Compression mode            : Lossy
    Stream size                 : 496 MiB (6%)
    Title                       : Español Latino EAC3 [CinemaniaHDD]
    Language                    : Spanish
    Service kind                : Complete Main
    Default                     : No
    Forced                      : No

    Audio #3
    ID                          : 4
    Format                      : E-AC-3
    Format/Info                 : Enhanced AC-3
    Commercial name             : Dolby Digital Plus
    Codec ID                    : A_EAC3
    Duration                    : 1 h 48 min
    Bit rate mode               : Constant
    Bit rate                    : 640 kb/s
    Channel(s)                  : 6 channels
    Channel layout              : L R C LFE Ls Rs
    Sampling rate               : 48.0 kHz
    Frame rate                  : 31.250 FPS (1536 SPF)
    Compression mode            : Lossy
    Stream size                 : 496 MiB (6%)
    Title                       : Japones [CinemaniaHDD]
    Language                    : Japanese
    Service kind                : Complete Main
    Default                     : No
    Forced                      : No

    Text #1
    ID                          : 5
    Format                      : UTF-8
    Codec ID                    : S_TEXT/UTF8
    Codec ID/Info               : UTF-8 Plain Text
    Duration                    : 53 min 49 s
    Bit rate                    : 0 b/s
    Count of elements           : 4
    Stream size                 : 59.0 Bytes (0%)
    Title                       : Forzados-SRT [CinemaniaHDD]
    Language                    : Spanish
    Default                     : Yes
    Forced                      : Yes

    Text #2
    ID                          : 6
    Format                      : UTF-8
    Codec ID                    : S_TEXT/UTF8
    Codec ID/Info               : UTF-8 Plain Text
    Duration                    : 1 h 43 min
    Bit rate                    : 37 b/s
    Count of elements           : 981
    Stream size                 : 28.7 KiB (0%)
    Title                       : Español-SRT [CinemaniaHDD]
    Language                    : Spanish
    Default                     : No
    Forced                      : No

    Text #3
    ID                          : 7
    Format                      : UTF-8
    Codec ID                    : S_TEXT/UTF8
    Codec ID/Info               : UTF-8 Plain Text
    Duration                    : 1 h 47 min
    Bit rate                    : 39 b/s
    Count of elements           : 1229
    Stream size                 : 31.3 KiB (0%)
    Title                       : Ingles-SRT [CinemaniaHDD]
    Language                    : English
    Default                     : No
    Forced                      : No

  • Peso: 8.03 GiB

Sinopsis

Descargar Ajin: Semi-Humano (2017) AMZN WEB-DL 1080p Latino. En el manga original, aparece una persona inmortal en un campo de batalla africano. Más tarde van apareciendo nuevos seres inmortales que empiezan a conocerse por el nombre de «Ajin» (demi-humanos). Antes de las vacaciones de verano, un estudiante de instituto japonés muere en un accidente de tráfico. Sin embargo, es revivido y se le pone un precio a su cabeza. Así empieza su desgracia, pues tendrá que huir de toda la humanidad.

Español Latino EAC3 & AC3 5.1 Web – Japones EAC3 5.1 Web

Ficha técnica

Video trailer de la película

Enlaces de descarga

Rip de Bluray

Descargar Ajin: Semi-Humano (2017) AMZN WEB-DL 1080p Latino




Aportes de DPeliculasHDmega la pass es:dpeliculashdmega.org Aportes de CinemaniaHD la pass es:cinemaniahdd.com
Guardado en : Acción , Misterio , Terror

Películas relacionadas

descargar Ajin: Semi-Humano (2017) AMZN WEB-DL 1080p Latino WEBDL 1080p gratis, Ajin: Semi-Humano (2017) AMZN WEB-DL 1080p Latino WEBDL mega 1 link, Ajin: Semi-Humano (2017) AMZN WEB-DL 1080p Latino WEBDL pelicula completa, descargar Ajin: Semi-Humano (2017) AMZN WEB-DL 1080p Latino WEBDL gratis en mega.

Ajin: Semi-Humano (2017) AMZN WEB-DL 1080p Latino pelicula full hd, Ajin: Semi-Humano (2017) AMZN WEB-DL 1080p Latino mega latino, Ajin: Semi-Humano (2017) AMZN WEB-DL 1080p Latino 4k latino, Ajin: Semi-Humano (2017) AMZN WEB-DL 1080p Latino pelicula completa, Ajin: Semi-Humano (2017) AMZN WEB-DL 1080p Latino descargar gratis, descargar Ajin: Semi-Humano (2017) AMZN WEB-DL 1080p Latino pelicula latino, Ajin: Semi-Humano (2017) AMZN WEB-DL 1080p Latino 1 link mega, Ajin: Semi-Humano (2017) AMZN WEB-DL 1080p Latino 1 link google drive, Ajin: Semi-Humano (2017) AMZN WEB-DL 1080p Latino hd 1080p latino.
Comentarios 0