×

¿Problemas para descargar con Mozilla, EDGE? Deshabilita la opción "Abrir vinculos en una pestaña nueva" tal como lo muestra ésta imagen.

Ainbo: La Guerrera Del Amazonas (2021) HD 1080p Latino

246 vistas

Información de Ainbo: La Guerrera Del Amazonas (2021) HD 1080p Latino

Datos de la película

  • Calidad: 1080p
  • Audio: Español Latino AC3 5.1 BLURAY - Ingles AC3 5.1 BLURAY
  • Subtitulos: Español Latino SRT - Ingles SRT
  • Resolución: 1920x804p
  • Formato: MKV
  • Codec: H.264
  • Encoder: Melkor
  • Mediainfo: Clic para Mostrar Datos Ver
  • Ainbo (2021) HD 1080p Latino.mkv
    Format                      : Matroska
    Format version              : Version 4
    File size                   : 3.43 GiB
    Duration                    : 1 h 24 min
    Overall bit rate            : 5 809 kb/s
    Movie name                  : AINBO: Spirit of the Amazon (2021) CinemniaHDD.Net
    Encoded date                : UTC 2021-11-07 01:32:30
    Writing application         : mkvmerge v56.1.0 ('My Friend') 64-bit
    Writing library             : libebml v1.4.2 + libmatroska v1.6.4
    Attachments                 : CINEMANIAHD.png

    Video
    ID                          : 1
    Format                      : AVC
    Format/Info                 : Advanced Video Codec
    Format profile              : High@L4.1
    Format settings             : CABAC / 5 Ref Frames
    Format settings, CABAC      : Yes
    Format settings, Reference  : 5 frames
    Codec ID                    : V_MPEG4/ISO/AVC
    Duration                    : 1 h 24 min
    Bit rate                    : 4 911 kb/s
    Width                       : 1 920 pixels
    Height                      : 804 pixels
    Display aspect ratio        : 2.40:1
    Frame rate mode             : Constant
    Frame rate                  : 24.000 FPS
    Color space                 : YUV
    Chroma subsampling          : 4:2:0
    Bit depth                   : 8 bits
    Scan type                   : Progressive
    Bits/(Pixel*Frame)          : 0.133
    Stream size                 : 2.90 GiB (85%)
    Title                       : HD1080p [CinemaniaHDD]
    Writing library             : x264 core 164 r3065 ae03d92
    Encoding settings           : cabac=1 / ref=5 / deblock=1:-3:-3 / analyse=0x3:0x133 / me=umh / subme=9 / psy=1 / psy_rd=1.00:0.00 / mixed_ref=1 / me_range=16 / chroma_me=1 / trellis=2 / 8x8dct=1 / cqm=0 / deadzone=21,11 / fast_pskip=0 / chroma_qp_offset=-2 / threads=25 / lookahead_threads=2 / sliced_threads=0 / nr=0 / decimate=1 / interlaced=0 / bluray_compat=0 / constrained_intra=0 / bframes=3 / b_pyramid=2 / b_adapt=2 / b_bias=0 / direct=3 / weightb=1 / open_gop=0 / weightp=2 / keyint=250 / keyint_min=24 / scenecut=40 / intra_refresh=0 / rc_lookahead=60 / rc=crf / mbtree=1 / crf=17.0 / qcomp=0.60 / qpmin=0 / qpmax=69 / qpstep=4 / ip_ratio=1.40 / aq=1:1.00
    Default                     : Yes
    Forced                      : No

    Audio #1
    ID                          : 2
    Format                      : AC-3
    Format/Info                 : Audio Coding 3
    Commercial name             : Dolby Digital
    Codec ID                    : A_AC3
    Duration                    : 1 h 24 min
    Bit rate mode               : Constant
    Bit rate                    : 448 kb/s
    Channel(s)                  : 6 channels
    Channel layout              : L R C LFE Ls Rs
    Sampling rate               : 48.0 kHz
    Frame rate                  : 31.250 FPS (1536 SPF)
    Compression mode            : Lossy
    Stream size                 : 271 MiB (8%)
    Title                       : Español Latino [CinemaniaHDD]
    Language                    : Spanish
    Service kind                : Complete Main
    Default                     : Yes
    Forced                      : Yes

    Audio #2
    ID                          : 3
    Format                      : AC-3
    Format/Info                 : Audio Coding 3
    Commercial name             : Dolby Digital
    Codec ID                    : A_AC3
    Duration                    : 1 h 24 min
    Bit rate mode               : Constant
    Bit rate                    : 448 kb/s
    Channel(s)                  : 6 channels
    Channel layout              : L R C LFE Ls Rs
    Sampling rate               : 48.0 kHz
    Frame rate                  : 31.250 FPS (1536 SPF)
    Compression mode            : Lossy
    Stream size                 : 271 MiB (8%)
    Title                       : Ingles [CinemaniaHDD]
    Language                    : English
    Service kind                : Complete Main
    Default                     : No
    Forced                      : No

    Text #1
    ID                          : 4
    Format                      : UTF-8
    Codec ID                    : S_TEXT/UTF8
    Codec ID/Info               : UTF-8 Plain Text
    Duration                    : 1 h 22 min
    Bit rate                    : 55 b/s
    Count of elements           : 1053
    Stream size                 : 33.5 KiB (0%)
    Title                       : Español-SRT [CinemaniaHDD]
    Language                    : Spanish
    Default                     : No
    Forced                      : No

    Text #2
    ID                          : 5
    Format                      : UTF-8
    Codec ID                    : S_TEXT/UTF8
    Codec ID/Info               : UTF-8 Plain Text
    Duration                    : 1 h 21 min
    Bit rate                    : 52 b/s
    Count of elements           : 1041
    Stream size                 : 31.5 KiB (0%)
    Title                       : Ingles-SRT [CinemaniaHDD]
    Language                    : English
    Default                     : No
    Forced                      : No

    Menu
    00:00:00.000                : Chapter 01
    00:07:39.375                : Chapter 02
    00:15:37.833                : Chapter 03
    00:23:46.500                : Chapter 04
    00:29:52.417                : Chapter 05
    00:35:38.958                : Chapter 06
    00:42:04.458                : Chapter 07
    00:48:36.875                : Chapter 08
    00:56:07.917                : Chapter 09
    01:03:07.875                : Chapter 10
    01:10:26.125                : Chapter 11
    01:18:34.875                : Chapter 12

  • Peso: 3.43 GiB

Sinopsis

Descargar Ainbo: La Guerrera Del Amazonas (2021) HD 1080p Latino. Una niña nació y creció en la selva más profunda del Amazonas, Colonia, que descansa sobre el lomo del Espíritu Materno más poderoso del Amazonas, Turtle Motelo Mama. Un día descubre que su tierra natal está siendo amenazada y se da cuenta de que hay otros humanos en el mundo además de su gente. Mientras lucha por salvar su paraíso contra la codicia y la explotación de los niños, la tala y la minería ilegal, comienza a luchar para revertir esta destrucción y el mal inminente de Yucuruna, la oscuridad que vive en el Amazonas. Guiada por el espíritu de su madre, Ainbo está decidida a salvar su tierra y salvar a su gente antes de que sea demasiado tarde.

Ficha técnica

Video trailer de la película

Enlaces de descarga

Rip de Bluray

Descargar Ainbo: La Guerrera Del Amazonas (2021) HD 1080p Latino




Aportes de DPeliculasHDmega la pass es:dpeliculashdmega.org Aportes de CinemaniaHD la pass es:cinemaniahdd.com

Películas relacionadas

descargar Ainbo: La Guerrera Del Amazonas (2021) HD 1080p Latino 1080p 1080p gratis, Ainbo: La Guerrera Del Amazonas (2021) HD 1080p Latino 1080p mega 1 link, Ainbo: La Guerrera Del Amazonas (2021) HD 1080p Latino 1080p pelicula completa, descargar Ainbo: La Guerrera Del Amazonas (2021) HD 1080p Latino 1080p gratis en mega.

Ainbo: La Guerrera Del Amazonas (2021) HD 1080p Latino pelicula full hd, Ainbo: La Guerrera Del Amazonas (2021) HD 1080p Latino mega latino, Ainbo: La Guerrera Del Amazonas (2021) HD 1080p Latino 4k latino, Ainbo: La Guerrera Del Amazonas (2021) HD 1080p Latino pelicula completa, Ainbo: La Guerrera Del Amazonas (2021) HD 1080p Latino descargar gratis, descargar Ainbo: La Guerrera Del Amazonas (2021) HD 1080p Latino pelicula latino, Ainbo: La Guerrera Del Amazonas (2021) HD 1080p Latino 1 link mega, Ainbo: La Guerrera Del Amazonas (2021) HD 1080p Latino 1 link google drive, Ainbo: La Guerrera Del Amazonas (2021) HD 1080p Latino hd 1080p latino.
Comentarios 0