×

¿Problemas para descargar con Mozilla, EDGE? Deshabilita la opción "Abrir vinculos en una pestaña nueva" tal como lo muestra ésta imagen.

Ahsoka (2023) Temporada 1 WEB-DL 1080p Latino

279 vistas

Información de Ahsoka (2023) Temporada 1 WEB-DL 1080p Latino

Datos de la película

  • Calidad: WEBDL
  • Audio: Se especifica abajo de la Sinopsis
  • Subtitulos: Español Latino SRT- FORZADOS SRT
  • Resolución: 1920x1080p
  • Formato: MKV
  • Codec: H.264
  • Encoder: Melkor
  • Mediainfo: Clic para Mostrar Datos Ver
  • Ahsoka S01E01 (2023) D+ Web-DL 1080p Latino.mkv
    Format                      : Matroska
    Format version              : Version 4
    File size                   : 2.26 GiB
    Duration                    : 54 min 43 s
    Overall bit rate mode       : Variable
    Overall bit rate            : 5 907 kb/s
    Movie name                  : Ahsoka S01E01 CinemaniaHDD.Net
    Encoded date                : UTC 2023-09-10 23:56:42
    Writing application         : mkvmerge v56.1.0 ('My Friend') 64-bit
    Writing library             : libebml v1.4.2 + libmatroska v1.6.4
    Attachments                 : CINEMANIAHD.png
    Site                        : CinemaniaHDD.Net
    Uploader                    : Melkor

    Video
    ID                          : 1
    Format                      : AVC
    Format/Info                 : Advanced Video Codec
    Format profile              : High@L4
    Format settings             : CABAC / 4 Ref Frames
    Format settings, CABAC      : Yes
    Format settings, Reference  : 4 frames
    Codec ID                    : V_MPEG4/ISO/AVC
    Duration                    : 54 min 43 s
    Bit rate mode               : Variable
    Bit rate                    : 4 881 kb/s
    Maximum bit rate            : 12.7 Mb/s
    Width                       : 1 920 pixels
    Height                      : 1 080 pixels
    Display aspect ratio        : 16:9
    Frame rate mode             : Constant
    Frame rate                  : 24.000 FPS
    Color space                 : YUV
    Chroma subsampling          : 4:2:0
    Bit depth                   : 8 bits
    Scan type                   : Progressive
    Bits/(Pixel*Frame)          : 0.098
    Stream size                 : 1.87 GiB (83%)
    Title                       : WEB HD1080p [CinemaniaHDD]
    Default                     : Yes
    Forced                      : No
    Color range                 : Limited
    Color primaries             : BT.709
    Transfer characteristics    : BT.709
    Matrix coefficients         : BT.709

    Audio #1
    ID                          : 2
    Format                      : E-AC-3
    Format/Info                 : Enhanced AC-3
    Commercial name             : Dolby Digital Plus
    Codec ID                    : A_EAC3
    Duration                    : 54 min 43 s
    Bit rate mode               : Constant
    Bit rate                    : 256 kb/s
    Channel(s)                  : 6 channels
    Channel layout              : L R C LFE Ls Rs
    Sampling rate               : 48.0 kHz
    Frame rate                  : 31.250 FPS (1536 SPF)
    Compression mode            : Lossy
    Stream size                 : 100 MiB (4%)
    Title                       : Español Latino [CinemaniaHDD]
    Language                    : Spanish
    Service kind                : Complete Main
    Default                     : Yes
    Forced                      : No

    Audio #2
    ID                          : 3
    Format                      : E-AC-3 JOC
    Format/Info                 : Enhanced AC-3 with Joint Object Coding
    Commercial name             : Dolby Digital Plus with Dolby Atmos
    Codec ID                    : A_EAC3
    Duration                    : 54 min 43 s
    Bit rate mode               : Constant
    Bit rate                    : 768 kb/s
    Channel(s)                  : 6 channels
    Channel layout              : L R C LFE Ls Rs
    Sampling rate               : 48.0 kHz
    Frame rate                  : 31.250 FPS (1536 SPF)
    Compression mode            : Lossy
    Stream size                 : 301 MiB (13%)
    Title                       : Ingles [CinemaniaHDD]
    Language                    : English
    Service kind                : Complete Main
    Default                     : No
    Forced                      : No
    Complexity index            : 16
    Number of dynamic objects   : 15
    Bed channel count           : 1 channel
    Bed channel configuration   : LFE

    Text #1
    ID                          : 4
    Format                      : UTF-8
    Codec ID                    : S_TEXT/UTF8
    Codec ID/Info               : UTF-8 Plain Text
    Duration                    : 5 s 0 ms
    Bit rate                    : 38 b/s
    Count of elements           : 1
    Stream size                 : 24.0 Bytes (0%)
    Title                       : Forzados-SRT [CinemaniaHDD]
    Language                    : Spanish
    Default                     : Yes
    Forced                      : No

    Text #2
    ID                          : 5
    Format                      : UTF-8
    Codec ID                    : S_TEXT/UTF8
    Codec ID/Info               : UTF-8 Plain Text
    Duration                    : 54 min 1 s
    Bit rate                    : 29 b/s
    Count of elements           : 365
    Stream size                 : 11.5 KiB (0%)
    Title                       : Español-SRT [CinemaniaHDD]
    Language                    : Spanish
    Default                     : No
    Forced                      : No

    Text #3
    ID                          : 6
    Format                      : UTF-8
    Codec ID                    : S_TEXT/UTF8
    Codec ID/Info               : UTF-8 Plain Text
    Duration                    : 48 min 19 s
    Bit rate                    : 31 b/s
    Count of elements           : 355
    Stream size                 : 11.1 KiB (0%)
    Title                       : Ingles-SRT [CinemaniaHDD]
    Language                    : English
    Default                     : No
    Forced                      : No

  • Peso: 1.7 GiB Aprox C/U -- 15.2 GiB -- 8 Chapters

Sinopsis

Descargar Ahsoka (2023) Temporada 1 WEB-DL 1080p Latino. Ambientada después de la caída del Imperio, la serie sigue al antiguo caballero Jedi mientras investiga una amenaza que se cierne sobre la galaxia.

Audio Español Latino EAC3 5.1 D+ – Ingles EAC3 JOC 5.1 D+

Ficha técnica

Video trailer de la película

Enlaces de descarga

Rip de Bluray

Descargar Ahsoka (2023) Temporada 1 WEB-DL 1080p Latino




Aportes de DPeliculasHDmega la pass es:dpeliculashdmega.org Aportes de CinemaniaHD la pass es:cinemaniahdd.com Aportes recientes:cinemaniahdd.net

Películas relacionadas

descargar Ahsoka (2023) Temporada 1 WEB-DL 1080p Latino WEBDL 1080p gratis, Ahsoka (2023) Temporada 1 WEB-DL 1080p Latino WEBDL mega 1 link, Ahsoka (2023) Temporada 1 WEB-DL 1080p Latino WEBDL serie completa, descargar Ahsoka (2023) Temporada 1 WEB-DL 1080p Latino WEBDL gratis en mega.

Ahsoka (2023) Temporada 1 WEB-DL 1080p Latino pelicula full hd, Ahsoka (2023) Temporada 1 WEB-DL 1080p Latino mega latino, Ahsoka (2023) Temporada 1 WEB-DL 1080p Latino 4k latino, Ahsoka (2023) Temporada 1 WEB-DL 1080p Latino pelicula completa, Ahsoka (2023) Temporada 1 WEB-DL 1080p Latino descargar gratis, descargar Ahsoka (2023) Temporada 1 WEB-DL 1080p Latino pelicula latino, Ahsoka (2023) Temporada 1 WEB-DL 1080p Latino 1 link mega, Ahsoka (2023) Temporada 1 WEB-DL 1080p Latino 1 link google drive, Ahsoka (2023) Temporada 1 WEB-DL 1080p Latino hd 1080p latino.
Comentarios 0