×

¿Problemas para descargar con Mozilla, EDGE? Deshabilita la opción "Abrir vinculos en una pestaña nueva" tal como lo muestra ésta imagen.

Aguas siniestras (2024) PLACEBO Full HD 1080p Latino

78 vistas

Información de Aguas siniestras (2024) PLACEBO Full HD 1080p Latino

Datos de la película

  • Calidad: Full 1080p
  • Audio: Español Latino DTS 5.1 BLURAY - Ingles DTS 5.1 BLURAY
  • Subtitulos: Español Latino PGS - Ingles PGS
  • Resolución: 1920x1080p
  • Formato: MKV
  • Codec: H.264
  • Encoder: Melkor
  • Mediainfo: Clic para Mostrar Datos Ver
  • Aguas Siniestras (2024) PLACEBO 1080p Latino.mkv
    Format                      : Matroska
    Format version              : Version 4
    File size                   : 5.59 GiB
    Duration                    : 1 h 38 min
    Overall bit rate            : 8 140 kb/s
    Movie name                  : Night Swim (2024) CinemaniaHDD.Net
    Encoded date                : UTC 2024-04-11 05:26:01
    Writing application         : mkvmerge v56.1.0 ('My Friend') 64-bit
    Writing library             : libebml v1.4.2 + libmatroska v1.6.4
    Cover                       : Yes
    Attachments                 : cover.jpg / CINEMANIAHD.png
    Site                        : CinemaniaHDD.Net
    Uploader                    : Melkor

    Video
    ID                          : 1
    Format                      : AVC
    Format/Info                 : Advanced Video Codec
    Format profile              : High@L4.1
    Format settings             : CABAC / 4 Ref Frames
    Format settings, CABAC      : Yes
    Format settings, Reference  : 4 frames
    Codec ID                    : V_MPEG4/ISO/AVC
    Duration                    : 1 h 38 min
    Bit rate                    : 5 098 kb/s
    Width                       : 1 920 pixels
    Height                      : 1 080 pixels
    Display aspect ratio        : 16:9
    Frame rate mode             : Constant
    Frame rate                  : 23.976 (24000/1001) FPS
    Color space                 : YUV
    Chroma subsampling          : 4:2:0
    Bit depth                   : 8 bits
    Scan type                   : Progressive
    Bits/(Pixel*Frame)          : 0.103
    Stream size                 : 3.50 GiB (63%)
    Title                       : Full HD1080p [CinemaniaHDD]
    Writing library             : x264 core 163 r3059 b684ebe0
    Encoding settings           : cabac=1 / ref=4 / deblock=1:0:0 / analyse=0x3:0x133 / me=tesa / subme=11 / psy=1 / psy_rd=1.00:0.00 / mixed_ref=1 / me_range=24 / chroma_me=1 / trellis=2 / 8x8dct=1 / cqm=0 / deadzone=21,11 / fast_pskip=0 / chroma_qp_offset=-2 / threads=24 / lookahead_threads=6 / sliced_threads=0 / nr=0 / decimate=1 / interlaced=0 / bluray_compat=0 / constrained_intra=0 / bframes=16 / b_pyramid=2 / b_adapt=2 / b_bias=0 / direct=3 / weightb=1 / open_gop=0 / weightp=2 / keyint=240 / keyint_min=24 / scenecut=40 / intra_refresh=0 / rc_lookahead=60 / rc=crf / mbtree=1 / crf=19.0 / qcomp=0.60 / qpmin=0 / qpmax=69 / qpstep=4 / vbv_maxrate=62500 / vbv_bufsize=78125 / crf_max=0.0 / nal_hrd=none / filler=0 / ip_ratio=1.40 / aq=1:1.00
    Default                     : Yes
    Forced                      : Yes
    Color range                 : Limited
    Color primaries             : BT.709
    Transfer characteristics    : BT.709
    Matrix coefficients         : BT.709

    Audio #1
    ID                          : 2
    Format                      : DTS
    Format/Info                 : Digital Theater Systems
    Codec ID                    : A_DTS
    Duration                    : 1 h 38 min
    Bit rate mode               : Constant
    Bit rate                    : 1 509 kb/s
    Channel(s)                  : 6 channels
    Channel layout              : C L R Ls Rs LFE
    Sampling rate               : 48.0 kHz
    Frame rate                  : 93.750 FPS (512 SPF)
    Bit depth                   : 24 bits
    Compression mode            : Lossy
    Stream size                 : 1.04 GiB (19%)
    Title                       : Español Latino [CinemaniaHDD]
    Language                    : Spanish
    Default                     : Yes
    Forced                      : Yes

    Audio #2
    ID                          : 3
    Format                      : DTS
    Format/Info                 : Digital Theater Systems
    Codec ID                    : A_DTS
    Duration                    : 1 h 38 min
    Bit rate mode               : Constant
    Bit rate                    : 1 509 kb/s
    Channel(s)                  : 6 channels
    Channel layout              : C L R Ls Rs LFE
    Sampling rate               : 48.0 kHz
    Frame rate                  : 93.750 FPS (512 SPF)
    Bit depth                   : 24 bits
    Compression mode            : Lossy
    Stream size                 : 1.04 GiB (19%)
    Title                       : Ingles [CinemaniaHDD]
    Language                    : English
    Default                     : No
    Forced                      : No

    Text #1
    ID                          : 4
    ID in the original source m : 4611 (0x1203)
    Format                      : PGS
    Muxing mode                 : zlib
    Codec ID                    : S_HDMV/PGS
    Codec ID/Info               : Picture based subtitle format used on BDs/HD-DVDs
    Duration                    : 1 h 37 min
    Bit rate                    : 68 b/s
    Count of elements           : 8
    Stream size                 : 49.0 KiB (0%)
    Title                       : Forzados-PGS [CinemaniaHDD]
    Language                    : Spanish
    Default                     : No
    Forced                      : No
    Original source medium      : Blu-ray

    Text #2
    ID                          : 5
    ID in the original source m : 4609 (0x1201)
    Format                      : PGS
    Muxing mode                 : zlib
    Codec ID                    : S_HDMV/PGS
    Codec ID/Info               : Picture based subtitle format used on BDs/HD-DVDs
    Duration                    : 1 h 37 min
    Bit rate                    : 24.4 kb/s
    Count of elements           : 1976
    Stream size                 : 17.0 MiB (0%)
    Title                       : Español-PGS [CinemaniaHDD]
    Language                    : Spanish
    Default                     : No
    Forced                      : No
    Original source medium      : Blu-ray

    Text #3
    ID                          : 6
    ID in the original source m : 4608 (0x1200)
    Format                      : PGS
    Muxing mode                 : zlib
    Codec ID                    : S_HDMV/PGS
    Codec ID/Info               : Picture based subtitle format used on BDs/HD-DVDs
    Duration                    : 1 h 38 min
    Bit rate                    : 40.7 kb/s
    Count of elements           : 3139
    Stream size                 : 28.6 MiB (0%)
    Title                       : Ingles-PGS [CinemaniaHDD]
    Language                    : English
    Default                     : No
    Forced                      : No
    Original source medium      : Blu-ray

    Text #4
    ID                          : 7
    Format                      : UTF-8
    Codec ID                    : S_TEXT/UTF8
    Codec ID/Info               : UTF-8 Plain Text
    Duration                    : 1 h 28 min
    Bit rate                    : 0 b/s
    Count of elements           : 3
    Stream size                 : 43.0 Bytes (0%)
    Title                       : Forzados-SRT [CinemaniaHDD]
    Language                    : Spanish
    Default                     : Yes
    Forced                      : Yes

    Text #5
    ID                          : 8
    Format                      : UTF-8
    Codec ID                    : S_TEXT/UTF8
    Codec ID/Info               : UTF-8 Plain Text
    Duration                    : 1 h 28 min
    Bit rate                    : 44 b/s
    Count of elements           : 987
    Stream size                 : 28.8 KiB (0%)
    Title                       : Español-SRT [CinemaniaHDD]
    Language                    : Spanish
    Default                     : No
    Forced                      : No

    Menu
    00:00:00.000                : Chapter 01
    00:05:59.275                : Chapter 02
    00:11:54.588                : Chapter 03
    00:15:48.030                : Chapter 04
    00:20:34.274                : Chapter 05
    00:25:23.188                : Chapter 06
    00:28:42.512                : Chapter 07
    00:31:47.363                : Chapter 08
    00:37:04.597                : Chapter 09
    00:42:48.524                : Chapter 10
    00:48:10.262                : Chapter 11
    00:53:50.310                : Chapter 12
    00:58:20.580                : Chapter 13
    01:01:29.435                : Chapter 14
    01:04:43.004                : Chapter 15
    01:12:37.394                : Chapter 16
    01:17:05.912                : Chapter 17
    01:22:42.874                : Chapter 18
    01:27:17.607                : Chapter 19
    01:29:24.859                : Chapter 20

  • Peso: 5.59 GiB

Sinopsis

Descargar Aguas siniestras (2024) PLACEBO Full HD 1080p Latino. Ray Waller, una estrella del béisbol obligada a retirarse prematuramente a causa de una enfermedad degenerativa, se muda a una nueva casa con su esposa Eve, su hija adolescente Izzy y su hijo pequeño Elliot. Con la esperanza secreta de recuperarse y volver al deporte profesional, Ray convence a Eve de que la fabulosa piscina del jardín de su nuevo hogar será divertida para los niños y le servirá a él como terapia física. Pero un oscuro secreto del pasado de la casa desatará una fuerza malévola que arrastrará a toda la familia a las insondables profundidades del terror más asfixiante.

Ficha técnica

Video trailer de la película

Enlaces de descarga

Rip de Bluray

Descargar Aguas siniestras (2024) PLACEBO Full HD 1080p Latino




Aportes de DPeliculasHDmega la pass es:dpeliculashdmega.org Aportes de CinemaniaHD la pass es:cinemaniahdd.com Aportes recientes:cinemaniahdd.net

Películas relacionadas

descargar Aguas siniestras (2024) PLACEBO Full HD 1080p Latino Full 1080p 1080p gratis, Aguas siniestras (2024) PLACEBO Full HD 1080p Latino Full 1080p mega 1 link, Aguas siniestras (2024) PLACEBO Full HD 1080p Latino Full 1080p pelicula completa, descargar Aguas siniestras (2024) PLACEBO Full HD 1080p Latino Full 1080p gratis en mega.

Aguas siniestras (2024) PLACEBO Full HD 1080p Latino pelicula full hd, Aguas siniestras (2024) PLACEBO Full HD 1080p Latino mega latino, Aguas siniestras (2024) PLACEBO Full HD 1080p Latino 4k latino, Aguas siniestras (2024) PLACEBO Full HD 1080p Latino pelicula completa, Aguas siniestras (2024) PLACEBO Full HD 1080p Latino descargar gratis, descargar Aguas siniestras (2024) PLACEBO Full HD 1080p Latino pelicula latino, Aguas siniestras (2024) PLACEBO Full HD 1080p Latino 1 link mega, Aguas siniestras (2024) PLACEBO Full HD 1080p Latino 1 link google drive, Aguas siniestras (2024) PLACEBO Full HD 1080p Latino hd 1080p latino.
Comentarios 0