×

¿Problemas para descargar con Mozilla, EDGE? Deshabilita la opción "Abrir vinculos en una pestaña nueva" tal como lo muestra ésta imagen.

Aguas siniestras (2024) HD 1080p Latino

89 vistas

Información de Aguas siniestras (2024) HD 1080p Latino

Datos de la película

  • Calidad: 1080p
  • Audio: Español Latino AC3 5.1 BLURAY - Ingles AC3 5.1 BLURAY
  • Subtitulos: Español Latino SRT- FORZADOS SRT
  • Resolución: 1920x804p
  • Formato: MKV
  • Codec: H.264
  • Encoder: Melkor
  • Mediainfo: Clic para Mostrar Datos Ver
  • Aguas Siniestras (2024) HD 1080p Latino.mkv
    Format                      : Matroska
    Format version              : Version 4
    File size                   : 3.11 GiB
    Duration                    : 1 h 38 min
    Overall bit rate            : 4 522 kb/s
    Movie name                  : Night Swim (2024) CinemaniaHDD.Net
    Encoded date                : UTC 2024-04-11 05:24:57
    Writing application         : mkvmerge v56.1.0 ('My Friend') 64-bit
    Writing library             : libebml v1.4.2 + libmatroska v1.6.4
    Cover                       : Yes
    Attachments                 : cover.jpg / CINEMANIAHD.png
    Site                        : CinemaniaHDD.Net
    Uploader                    : Melkor

    Video
    ID                          : 1
    Format                      : AVC
    Format/Info                 : Advanced Video Codec
    Format profile              : High@L4.1
    Format settings             : CABAC / 5 Ref Frames
    Format settings, CABAC      : Yes
    Format settings, Reference  : 5 frames
    Codec ID                    : V_MPEG4/ISO/AVC
    Duration                    : 1 h 38 min
    Bit rate                    : 3 500 kb/s
    Width                       : 1 920 pixels
    Height                      : 804 pixels
    Display aspect ratio        : 2.40:1
    Frame rate mode             : Constant
    Frame rate                  : 23.976 (24000/1001) FPS
    Color space                 : YUV
    Chroma subsampling          : 4:2:0
    Bit depth                   : 8 bits
    Scan type                   : Progressive
    Bits/(Pixel*Frame)          : 0.095
    Stream size                 : 2.36 GiB (76%)
    Title                       : HD1080p [CinemaniaHDD]
    Writing library             : x264 core 163 r3059 b684ebe0
    Encoding settings           : cabac=1 / ref=5 / deblock=1:-1:-1 / analyse=0x3:0x133 / me=umh / subme=9 / psy=1 / psy_rd=1.00:0.15 / mixed_ref=1 / me_range=16 / chroma_me=1 / trellis=2 / 8x8dct=1 / cqm=0 / deadzone=21,11 / fast_pskip=1 / chroma_qp_offset=-3 / threads=24 / lookahead_threads=2 / sliced_threads=0 / nr=0 / decimate=1 / interlaced=0 / bluray_compat=0 / constrained_intra=0 / bframes=3 / b_pyramid=2 / b_adapt=2 / b_bias=0 / direct=3 / weightb=1 / open_gop=0 / weightp=2 / keyint=240 / keyint_min=24 / scenecut=40 / intra_refresh=0 / rc_lookahead=60 / rc=abr / mbtree=1 / bitrate=3500 / ratetol=1.0 / qcomp=0.60 / qpmin=0 / qpmax=69 / qpstep=4 / vbv_maxrate=62500 / vbv_bufsize=78125 / nal_hrd=none / filler=0 / ip_ratio=1.40 / aq=1:1.00
    Default                     : Yes
    Forced                      : Yes
    Color range                 : Limited
    Color primaries             : BT.709
    Transfer characteristics    : BT.709
    Matrix coefficients         : BT.709

    Audio #1
    ID                          : 2
    Format                      : AC-3
    Format/Info                 : Audio Coding 3
    Commercial name             : Dolby Digital
    Codec ID                    : A_AC3
    Duration                    : 1 h 38 min
    Bit rate mode               : Constant
    Bit rate                    : 640 kb/s
    Channel(s)                  : 6 channels
    Channel layout              : L R C LFE Ls Rs
    Sampling rate               : 48.0 kHz
    Frame rate                  : 31.250 FPS (1536 SPF)
    Compression mode            : Lossy
    Delay relative to video     : -5 ms
    Stream size                 : 450 MiB (14%)
    Title                       : Español Latino [CinemaniaHDD]
    Language                    : Spanish
    Service kind                : Complete Main
    Default                     : Yes
    Forced                      : Yes

    Audio #2
    ID                          : 3
    Format                      : AC-3
    Format/Info                 : Audio Coding 3
    Commercial name             : Dolby Digital
    Codec ID                    : A_AC3
    Duration                    : 1 h 38 min
    Bit rate mode               : Constant
    Bit rate                    : 448 kb/s
    Channel(s)                  : 6 channels
    Channel layout              : L R C LFE Ls Rs
    Sampling rate               : 48.0 kHz
    Frame rate                  : 31.250 FPS (1536 SPF)
    Compression mode            : Lossy
    Delay relative to video     : -5 ms
    Stream size                 : 315 MiB (10%)
    Title                       : Ingles [CinemaniaHDD]
    Language                    : English
    Service kind                : Complete Main
    Default                     : No
    Forced                      : No

    Text #1
    ID                          : 4
    Format                      : UTF-8
    Codec ID                    : S_TEXT/UTF8
    Codec ID/Info               : UTF-8 Plain Text
    Duration                    : 1 h 28 min
    Bit rate                    : 0 b/s
    Count of elements           : 3
    Stream size                 : 43.0 Bytes (0%)
    Title                       : Forzados-SRT [CinemaniaHDD]
    Language                    : Spanish
    Default                     : Yes
    Forced                      : Yes

    Text #2
    ID                          : 5
    Format                      : UTF-8
    Codec ID                    : S_TEXT/UTF8
    Codec ID/Info               : UTF-8 Plain Text
    Duration                    : 1 h 28 min
    Bit rate                    : 44 b/s
    Count of elements           : 987
    Stream size                 : 28.8 KiB (0%)
    Title                       : Español-SRT [CinemaniaHDD]
    Language                    : Spanish
    Default                     : No
    Forced                      : No

    Menu
    00:00:00.000                : Chapter 01
    00:05:59.275                : Chapter 02
    00:11:54.588                : Chapter 03
    00:15:48.030                : Chapter 04
    00:20:34.274                : Chapter 05
    00:25:23.188                : Chapter 06
    00:28:42.512                : Chapter 07
    00:31:47.363                : Chapter 08
    00:37:04.597                : Chapter 09
    00:42:48.524                : Chapter 10
    00:48:10.262                : Chapter 11
    00:53:50.310                : Chapter 12
    00:58:20.580                : Chapter 13
    01:01:29.435                : Chapter 14
    01:04:43.004                : Chapter 15
    01:12:37.394                : Chapter 16
    01:17:05.912                : Chapter 17
    01:22:42.874                : Chapter 18
    01:27:17.607                : Chapter 19
    01:29:24.859                : Chapter 20

  • Peso: 3.11 GiB

Sinopsis

Descargar Aguas siniestras (2024) HD 1080p Latino. Ray Waller, una estrella del béisbol obligada a retirarse prematuramente a causa de una enfermedad degenerativa, se muda a una nueva casa con su esposa Eve, su hija adolescente Izzy y su hijo pequeño Elliot. Con la esperanza secreta de recuperarse y volver al deporte profesional, Ray convence a Eve de que la fabulosa piscina del jardín de su nuevo hogar será divertida para los niños y le servirá a él como terapia física. Pero un oscuro secreto del pasado de la casa desatará una fuerza malévola que arrastrará a toda la familia a las insondables profundidades del terror más asfixiante.

Ficha técnica

Video trailer de la película

Enlaces de descarga

Rip de Bluray

Descargar Aguas siniestras (2024) HD 1080p Latino




Aportes de DPeliculasHDmega la pass es:dpeliculashdmega.org Aportes de CinemaniaHD la pass es:cinemaniahdd.com Aportes recientes:cinemaniahdd.net
Guardado en : HD 1080p , Suspenso , Terror

Películas relacionadas

  • Red de venganza (2023) HD 1080p Latino

    Red de venganza (2023) HD 1080p Latino

    2023
    Red de venganza (2023) HD 1080p Latino

    1h 25m 2023

    Descargar Red de venganza (2023) HD 1080p Latino. Analiza los problemas que surgen entre una madre (Summer...

    Director: Amy Redford

    Género: Drama

    Actores: Summer Phoenix

  • Red de venganza (2023) REMUX 1080p Latino

    Red de venganza (2023) REMUX 1080p Latino

    2023
    Red de venganza (2023) REMUX 1080p Latino

    1h 25m 2023

    Descargar Red de venganza (2023) REMUX 1080p Latino. Analiza los problemas que surgen entre una madre...

    Director: Amy Redford

    Género: Drama

    Actores: Summer Phoenix

  • Recuerdos Mortales (2024) WEB-DL 1080p Latino

    Recuerdos Mortales (2024) WEB-DL 1080p Latino

    2024
    Recuerdos Mortales (2024) WEB-DL 1080p Latino

    1h 52m 2024

    Descargar Recuerdos Mortales (2024) WEB-DL 1080p Latino. Después de someterse a un tratamiento de vanguardia...

    Director: Adam Cooper

    Género: Crimen

    Actores: Tommy Flanagan

  • La primera profecía (2024) WEB-DL 1080p Latino

    La primera profecía (2024) WEB-DL 1080p Latino

    2024
    La primera profecía (2024) WEB-DL 1080p Latino

    1h 59m 2024

    Descargar La primera profecía (2024) WEB-DL 1080p Latino. Cuando una joven estadounidense es enviada...

    Director: Timothy Visentin

    Género: Terror

    Actores: Tawfeek Barhom

descargar Aguas siniestras (2024) HD 1080p Latino 1080p 1080p gratis, Aguas siniestras (2024) HD 1080p Latino 1080p mega 1 link, Aguas siniestras (2024) HD 1080p Latino 1080p pelicula completa, descargar Aguas siniestras (2024) HD 1080p Latino 1080p gratis en mega.

Aguas siniestras (2024) HD 1080p Latino pelicula full hd, Aguas siniestras (2024) HD 1080p Latino mega latino, Aguas siniestras (2024) HD 1080p Latino 4k latino, Aguas siniestras (2024) HD 1080p Latino pelicula completa, Aguas siniestras (2024) HD 1080p Latino descargar gratis, descargar Aguas siniestras (2024) HD 1080p Latino pelicula latino, Aguas siniestras (2024) HD 1080p Latino 1 link mega, Aguas siniestras (2024) HD 1080p Latino 1 link google drive, Aguas siniestras (2024) HD 1080p Latino hd 1080p latino.
Comentarios 0