×

¿Problemas para descargar con Mozilla, EDGE? Deshabilita la opción "Abrir vinculos en una pestaña nueva" tal como lo muestra ésta imagen.

Aguas oscuras (2018) 1080p Latino

810 vistas

Información de Aguas oscuras (2018) 1080p Latino

Datos de la película

  • Calidad: 1080p
  • Audio: Español Latino AC3 5.1 BLURAY - Ingles AC3 5.1 BLURAY
  • Subtitulos: Español Latino SRT- FORZADOS SRT
  • Resolución: 1920x804
  • Formato: MKV
  • Codec: H.264
  • Encoder: cinemaniahd
  • Mediainfo: Clic para Mostrar Datos Ver
  • Dark Waters (2019) 1080p Latino.mkv
    Format                      : Matroska
    Format version              : Version 4
    File size                   : 4.02 GiB
    Duration                    : 2 h 7 min
    Overall bit rate            : 4 530 kb/s
    Movie name                  : Dark Waters (2019) 1080p Latino
    Encoded date                : UTC 2020-02-20 20:21:05
    Writing application         : mkvmerge v42.0.0 ('Overtime') 64-bit
    Writing library             : libebml v1.3.10 + libmatroska v1.5.2 / Lavf58.20.100

    Video
    ID                          : 1
    Format                      : AVC
    Format/Info                 : Advanced Video Codec
    Format profile              : Main@L4
    Format settings             : CABAC / 5 Ref Frames
    Format settings, CABAC      : Yes
    Format settings, ReFrames   : 5 frames
    Codec ID                    : V_MPEG4/ISO/AVC
    Duration                    : 2 h 7 min
    Bit rate                    : 3 500 kb/s
    Width                       : 1 920 pixels
    Height                      : 804 pixels
    Display aspect ratio        : 2.40:1
    Frame rate mode             : Constant
    Frame rate                  : 23.976 (24000/1001) FPS
    Color space                 : YUV
    Chroma subsampling          : 4:2:0
    Bit depth                   : 8 bits
    Scan type                   : Progressive
    Bits/(Pixel*Frame)          : 0.095
    Stream size                 : 3.05 GiB (76%)
    Title                       : CinemaniaHDD
    Writing library             : x264 core 157 r2935 545de2f
    Encoding settings           : cabac=1 / ref=5 / deblock=1:0:0 / analyse=0x1:0x111 / me=hex / subme=8 / psy=1 / psy_rd=1.00:0.00 / mixed_ref=1 / me_range=16 / chroma_me=1 / trellis=2 / 8x8dct=0 / cqm=0 / deadzone=21,11 / fast_pskip=1 / chroma_qp_offset=-2 / threads=25 / lookahead_threads=4 / sliced_threads=0 / nr=0 / decimate=1 / interlaced=0 / bluray_compat=0 / constrained_intra=0 / bframes=3 / b_pyramid=2 / b_adapt=1 / b_bias=0 / direct=3 / weightb=1 / open_gop=0 / weightp=2 / keyint=240 / keyint_min=24 / scenecut=40 / intra_refresh=0 / rc_lookahead=50 / rc=abr / mbtree=1 / bitrate=3500 / ratetol=1.0 / qcomp=0.60 / qpmin=0 / qpmax=69 / qpstep=4 / vbv_maxrate=20000 / vbv_bufsize=25000 / nal_hrd=none / filler=0 / ip_ratio=1.40 / aq=1:1.00
    Default                     : Yes
    Forced                      : No
    Color range                 : Limited
    Color primaries             : BT.709
    Transfer characteristics    : BT.709
    Matrix coefficients         : BT.709

    Audio #1
    ID                          : 2
    Format                      : AC-3
    Format/Info                 : Audio Coding 3
    Commercial name             : Dolby Digital
    Codec ID                    : A_AC3
    Duration                    : 2 h 7 min
    Bit rate mode               : Constant
    Bit rate                    : 640 kb/s
    Channel(s)                  : 6 channels
    Channel layout              : L R C LFE Ls Rs
    Sampling rate               : 48.0 kHz
    Frame rate                  : 31.250 FPS (1536 SPF)
    Bit depth                   : 16 bits
    Compression mode            : Lossy
    Delay relative to video     : -5 ms
    Stream size                 : 582 MiB (14%)
    Title                       : Español latino [CinemaniaHDD]
    Language                    : Spanish
    Service kind                : Complete Main
    Default                     : Yes
    Forced                      : No

    Audio #2
    ID                          : 3
    Format                      : AC-3
    Format/Info                 : Audio Coding 3
    Commercial name             : Dolby Digital
    Codec ID                    : A_AC3
    Duration                    : 2 h 7 min
    Bit rate mode               : Constant
    Bit rate                    : 448 kb/s
    Channel(s)                  : 6 channels
    Channel layout              : L R C LFE Ls Rs
    Sampling rate               : 48.0 kHz
    Frame rate                  : 31.250 FPS (1536 SPF)
    Bit depth                   : 16 bits
    Compression mode            : Lossy
    Delay relative to video     : -5 ms
    Stream size                 : 407 MiB (10%)
    Title                       : Inglés [CinemaniaHDD]
    Language                    : English
    Service kind                : Complete Main
    Default                     : No
    Forced                      : No

    Text #1
    ID                          : 4
    Format                      : UTF-8
    Codec ID                    : S_TEXT/UTF8
    Codec ID/Info               : UTF-8 Plain Text
    Duration                    : 5 s 255 ms
    Bit rate                    : 170 b/s
    Count of elements           : 2
    Stream size                 : 112 Bytes (0%)
    Title                       : Forzados [CinemaniaHDD]
    Language                    : Spanish
    Default                     : Yes
    Forced                      : No

    Text #2
    ID                          : 5
    Format                      : UTF-8
    Codec ID                    : S_TEXT/UTF8
    Codec ID/Info               : UTF-8 Plain Text
    Duration                    : 2 h 1 min
    Bit rate                    : 66 b/s
    Count of elements           : 1805
    Stream size                 : 59.4 KiB (0%)
    Title                       : Español latino [CinemaniaHDD]
    Language                    : Spanish
    Default                     : No
    Forced                      : No

    Menu
    00:00:00.000                : :Chapter 1
    00:10:08.191                : :Chapter 2
    00:18:18.431                : :Chapter 3
    00:28:20.449                : :Chapter 4
    00:36:48.957                : :Chapter 5
    00:44:45.892                : :Chapter 6
    00:50:17.056                : :Chapter 7
    01:04:17.479                : :Chapter 8
    01:08:46.205                : :Chapter 9
    01:17:23.639                : :Chapter 10
    01:23:51.235                : :Chapter 11
    01:25:32.085                : :Chapter 12
    01:31:40.996                : :Chapter 13
    01:36:14.978                : :Chapter 14
    01:38:55.888                : :Chapter 15
    01:42:26.807                : :Chapter 16
    01:45:11.180                : :Chapter 17
    01:50:32.084                : :Chapter 18
    02:00:16.668                : :Chapter 19
    02:02:02.690                : :Chapter 20

  • Peso: 4.02 GiB

Sinopsis

Inspirada en una impactante historia real, un tenaz abogado (Mark Ruffalo) descubre el oscuro secreto que conecta un número creciente de muertes inexplicables con una de las corporaciones más grandes del mundo. En el proceso, arriesga todo: su futuro, su familia y su propia vida, para sacar a la luz la verdad.

Ficha técnica

  • Titulo original: Dark Waters
  • Fecha de lanzamiento: 22-11-2019 (United States of America)
  • Director: Todd Haynes
  • Género: Drama, HD 1080p

Video trailer de la película

Enlaces de descarga

Rip de Bluray

Descargar Aguas oscuras (2018) 1080p Latino




Aportes de DPeliculasHDmega la pass es:dpeliculashdmega.org Aportes de CinemaniaHD la pass es:cinemaniahdd.com
Guardado en : Drama , HD 1080p

Películas relacionadas

descargar Aguas oscuras (2018) 1080p Latino 1080p 1080p gratis, Aguas oscuras (2018) 1080p Latino 1080p mega 1 link, Aguas oscuras (2018) 1080p Latino 1080p pelicula completa, descargar Aguas oscuras (2018) 1080p Latino 1080p gratis en mega.

Aguas oscuras (2018) 1080p Latino pelicula full hd, Aguas oscuras (2018) 1080p Latino mega latino, Aguas oscuras (2018) 1080p Latino 4k latino, Aguas oscuras (2018) 1080p Latino pelicula completa, Aguas oscuras (2018) 1080p Latino descargar gratis, descargar Aguas oscuras (2018) 1080p Latino pelicula latino, Aguas oscuras (2018) 1080p Latino 1 link mega, Aguas oscuras (2018) 1080p Latino 1 link google drive, Aguas oscuras (2018) 1080p Latino hd 1080p latino.
Comentarios 0