×

¿Problemas para descargar con Mozilla, EDGE? Deshabilita la opción "Abrir vinculos en una pestaña nueva" tal como lo muestra ésta imagen.

Agentes 355 (2022) AMZN Web-DL 1080p Latino

763 vistas

Información de Agentes 355 (2022) AMZN Web-DL 1080p Latino

Datos de la película

  • Calidad: WEBDL
  • Audio: Español Latino AC3 5.1 WEB-DL - Ingles AC3 5.1 WEB-DL
  • Subtitulos: Español Latino SRT- FORZADOS SRT
  • Resolución: 1920x800p
  • Formato: MKV
  • Codec: H.264
  • Encoder: Melkor
  • Mediainfo: Clic para Mostrar Datos Ver
  • Agentes 355 (2022) AMZN WebDL 1080p Latino.mkv
    Format                      : Matroska
    Format version              : Version 4
    File size                   : 7.65 GiB
    Duration                    : 2 h 2 min
    Overall bit rate            : 8 940 kb/s
    Movie name                  : The 355 (2022) CinemaniaHDD.Net
    Encoded date                : UTC 2022-02-01 04:18:51
    Writing application         : mkvmerge v56.1.0 ('My Friend') 64-bit
    Writing library             : libebml v1.4.2 + libmatroska v1.6.4
    Attachments                 : CINEMANIAHD.png

    Video
    ID                          : 1
    Format                      : AVC
    Format/Info                 : Advanced Video Codec
    Format profile              : High@L4
    Format settings             : CABAC / 4 Ref Frames
    Format settings, CABAC      : Yes
    Format settings, Reference  : 4 frames
    Codec ID                    : V_MPEG4/ISO/AVC
    Duration                    : 2 h 2 min
    Bit rate mode               : Constant
    Bit rate                    : 7 849 kb/s
    Nominal bit rate            : 10 000 kb/s
    Width                       : 1 920 pixels
    Height                      : 800 pixels
    Display aspect ratio        : 2.40:1
    Frame rate mode             : Constant
    Frame rate                  : 23.976 (24000/1001) FPS
    Color space                 : YUV
    Chroma subsampling          : 4:2:0
    Bit depth                   : 8 bits
    Scan type                   : Progressive
    Bits/(Pixel*Frame)          : 0.213
    Stream size                 : 6.72 GiB (88%)
    Title                       : Web HD1080p [CinemaniaHDD]
    Default                     : Yes
    Forced                      : No
    Color range                 : Limited
    Color primaries             : BT.709
    Transfer characteristics    : BT.709
    Matrix coefficients         : BT.709

    Audio #1
    ID                          : 2
    Format                      : AC-3
    Format/Info                 : Audio Coding 3
    Commercial name             : Dolby Digital
    Codec ID                    : A_AC3
    Duration                    : 2 h 2 min
    Bit rate mode               : Constant
    Bit rate                    : 448 kb/s
    Channel(s)                  : 6 channels
    Channel layout              : L R C LFE Ls Rs
    Sampling rate               : 48.0 kHz
    Frame rate                  : 31.250 FPS (1536 SPF)
    Compression mode            : Lossy
    Stream size                 : 393 MiB (5%)
    Title                       : Español Latino [CinemaniaHDD]
    Language                    : Spanish
    Service kind                : Complete Main
    Default                     : Yes
    Forced                      : No

    Audio #2
    ID                          : 3
    Format                      : E-AC-3
    Format/Info                 : Enhanced AC-3
    Commercial name             : Dolby Digital Plus
    Codec ID                    : A_EAC3
    Duration                    : 2 h 2 min
    Bit rate mode               : Constant
    Bit rate                    : 640 kb/s
    Channel(s)                  : 6 channels
    Channel layout              : L R C LFE Ls Rs
    Sampling rate               : 48.0 kHz
    Frame rate                  : 31.250 FPS (1536 SPF)
    Compression mode            : Lossy
    Stream size                 : 561 MiB (7%)
    Title                       : Ingles [CinemaniaHDD]
    Language                    : English
    Service kind                : Complete Main
    Default                     : No
    Forced                      : No

    Text #1
    ID                          : 4
    Format                      : UTF-8
    Codec ID                    : S_TEXT/UTF8
    Codec ID/Info               : UTF-8 Plain Text
    Duration                    : 1 h 48 min
    Bit rate                    : 4 b/s
    Count of elements           : 124
    Stream size                 : 3.49 KiB (0%)
    Title                       : Forzados-SRT [CinemaniaHDD]
    Language                    : Spanish
    Default                     : Yes
    Forced                      : No

    Text #2
    ID                          : 5
    Format                      : UTF-8
    Codec ID                    : S_TEXT/UTF8
    Codec ID/Info               : UTF-8 Plain Text
    Duration                    : 1 h 54 min
    Bit rate                    : 47 b/s
    Count of elements           : 1422
    Stream size                 : 39.7 KiB (0%)
    Title                       : Español-SRT [CinemaniaHDD]
    Language                    : Spanish
    Default                     : No
    Forced                      : No

    Text #3
    ID                          : 6
    Format                      : UTF-8
    Codec ID                    : S_TEXT/UTF8
    Codec ID/Info               : UTF-8 Plain Text
    Duration                    : 2 h 2 min
    Bit rate                    : 50 b/s
    Count of elements           : 1775
    Stream size                 : 45.4 KiB (0%)
    Title                       : Ingles-SRT [CinemaniaHDD]
    Language                    : English
    Default                     : No
    Forced                      : No

  • Peso: 7.65 GiB

Sinopsis

Descargar Agentes 355 (2022) AMZN Web-DL 1080p Latino. Thriller de espionaje -ideado y producido por Jessica Chastain- sobre cinco mujeres que se unen, superando sus rencillas y conflictos personales, para usar sus respectivos talentos y experiencia con un objetivo: intentar evitar que una poderosa organización adquiera un arma que empuje al tambaleante mundo al caos total. En el camino, estas mujeres se convertirán en camaradas y amigas, formando un nuevo grupo cuyo nombre en clave es «355», nombre que adoptan de la primera mujer espía en la Revolución Americana.

Ficha técnica

  • Titulo original: The 355
  • Fecha de lanzamiento: 05-01-2022 (China, France, United States of America)
  • Director: Simon Kinberg
  • Género: Acción, Suspenso

Video trailer de la película

Enlaces de descarga

Rip de Bluray

Descargar Agentes 355 (2022) AMZN Web-DL 1080p Latino




Aportes de DPeliculasHDmega la pass es:dpeliculashdmega.org Aportes de CinemaniaHD la pass es:cinemaniahdd.com
Guardado en : Acción , Suspenso

Películas relacionadas

  • Paradise Highway (2022) HD 1080p Latino

    Paradise Highway (2022) HD 1080p Latino

    2022
    Paradise Highway (2022) HD 1080p Latino

    1h 55m 2022

    Descargar Paradise Highway (2022) HD 1080p Latino. Un camionero se ha visto obligado a pasar de contrabando...

    Director: Anna Gutto

    Género: Crimen

    Actores: Xavier Scott Evans

  • Paradise Highway (2022) PLACEBO Full HD 1080p Latino

    Paradise Highway (2022) PLACEBO Full HD 1080p Latino

    2022
    Paradise Highway (2022) PLACEBO Full HD 1080p Latino

    1h 55m 2022

    Descargar Paradise Highway (2022) PLACEBO Full HD 1080p Latino. Un camionero se ha visto obligado a pasar...

    Director: Anna Gutto

    Género: Crimen

    Actores: Xavier Scott Evans

  • Paradise Highway (2022) REMUX 1080p Latino

    Paradise Highway (2022) REMUX 1080p Latino

    2022
    Paradise Highway (2022) REMUX 1080p Latino

    1h 55m 2022

    Descargar Paradise Highway (2022) REMUX 1080p Latino. Un camionero se ha visto obligado a pasar de contrabando...

    Director: Anna Gutto

    Género: Crimen

    Actores: Xavier Scott Evans

  • Shotgun Wedding (2022) AMZN WEB-DL 1080p Latino

    Shotgun Wedding (2022) AMZN WEB-DL 1080p Latino

    2022
    Shotgun Wedding (2022) AMZN WEB-DL 1080p Latino

    1h 41m 2022

    Darcy y Tom reúnen a sus familias para la boda de destino definitiva, pero cuando toman como rehenes...

    Director: Jason Moore

    Género: Acción

    Actores: Steve Coulter

descargar Agentes 355 (2022) AMZN Web-DL 1080p Latino WEBDL 1080p gratis, Agentes 355 (2022) AMZN Web-DL 1080p Latino WEBDL mega 1 link, Agentes 355 (2022) AMZN Web-DL 1080p Latino WEBDL pelicula completa, descargar Agentes 355 (2022) AMZN Web-DL 1080p Latino WEBDL gratis en mega.

Agentes 355 (2022) AMZN Web-DL 1080p Latino pelicula full hd, Agentes 355 (2022) AMZN Web-DL 1080p Latino mega latino, Agentes 355 (2022) AMZN Web-DL 1080p Latino 4k latino, Agentes 355 (2022) AMZN Web-DL 1080p Latino pelicula completa, Agentes 355 (2022) AMZN Web-DL 1080p Latino descargar gratis, descargar Agentes 355 (2022) AMZN Web-DL 1080p Latino pelicula latino, Agentes 355 (2022) AMZN Web-DL 1080p Latino 1 link mega, Agentes 355 (2022) AMZN Web-DL 1080p Latino 1 link google drive, Agentes 355 (2022) AMZN Web-DL 1080p Latino hd 1080p latino.
Comentarios 0