×

¿Problemas para descargar con Mozilla, EDGE? Deshabilita la opción "Abrir vinculos en una pestaña nueva" tal como lo muestra ésta imagen.

Agentes 355 (2022) AMZN WEB-DL 4K UHD HDR Latino

825 vistas

Información de Agentes 355 (2022) AMZN WEB-DL 4K UHD HDR Latino

Datos de la película

  • Calidad: WEBDL
  • Audio: Español Latino AC3 5.1 WEB-DL - Ingles AC3 5.1 WEB-DL
  • Subtitulos: Español Latino SRT- FORZADOS SRT
  • Resolución: 3840x1600p
  • Formato: MKV
  • Codec: HEVC
  • Encoder: Melkor
  • Mediainfo: Clic para Mostrar Datos Ver
  • Agentes 355 (2022) AMZN WEB UHD HDR Latino.mkv
    Format                      : Matroska
    Format version              : Version 4
    File size                   : 13.7 GiB
    Duration                    : 2 h 2 min
    Overall bit rate            : 16.0 Mb/s
    Movie name                  : The 355 (2022) CinemaniaHDD.Net
    Encoded date                : UTC 2022-02-01 04:23:55
    Writing application         : mkvmerge v56.1.0 ('My Friend') 64-bit
    Writing library             : libebml v1.4.2 + libmatroska v1.6.4
    Attachments                 : CINEMANIAHD.png

    Video
    ID                          : 1
    Format                      : HEVC
    Format/Info                 : High Efficiency Video Coding
    Format profile              : Main 10@L5@Main
    HDR format                  : SMPTE ST 2094 App 4, Version 1, HDR10+ Profile B compatible
    Codec ID                    : V_MPEGH/ISO/HEVC
    Duration                    : 2 h 2 min
    Bit rate                    : 14.9 Mb/s
    Width                       : 3 840 pixels
    Height                      : 1 600 pixels
    Display aspect ratio        : 2.40:1
    Frame rate mode             : Constant
    Frame rate                  : 23.976 (24000/1001) FPS
    Color space                 : YUV
    Chroma subsampling          : 4:2:0
    Bit depth                   : 10 bits
    Bits/(Pixel*Frame)          : 0.101
    Stream size                 : 12.8 GiB (93%)
    Title                       : Web 2160p HDR [CinemaniaHDD]
    Default                     : Yes
    Forced                      : No
    Color range                 : Limited
    Color primaries             : BT.2020
    Transfer characteristics    : PQ
    Matrix coefficients         : BT.2020 non-constant
    Mastering display color pri : Display P3
    Mastering display luminance : min: 0.0050 cd/m2, max: 1000 cd/m2
    Maximum Content Light Level : 423 cd/m2
    Maximum Frame-Average Light : 94 cd/m2

    Audio #1
    ID                          : 2
    Format                      : AC-3
    Format/Info                 : Audio Coding 3
    Commercial name             : Dolby Digital
    Codec ID                    : A_AC3
    Duration                    : 2 h 2 min
    Bit rate mode               : Constant
    Bit rate                    : 448 kb/s
    Channel(s)                  : 6 channels
    Channel layout              : L R C LFE Ls Rs
    Sampling rate               : 48.0 kHz
    Frame rate                  : 31.250 FPS (1536 SPF)
    Compression mode            : Lossy
    Stream size                 : 393 MiB (3%)
    Title                       : Español Latino [CinemaniaHDD]
    Language                    : Spanish
    Service kind                : Complete Main
    Default                     : Yes
    Forced                      : Yes

    Audio #2
    ID                          : 3
    Format                      : E-AC-3
    Format/Info                 : Enhanced AC-3
    Commercial name             : Dolby Digital Plus
    Codec ID                    : A_EAC3
    Duration                    : 2 h 2 min
    Bit rate mode               : Constant
    Bit rate                    : 640 kb/s
    Channel(s)                  : 6 channels
    Channel layout              : L R C LFE Ls Rs
    Sampling rate               : 48.0 kHz
    Frame rate                  : 31.250 FPS (1536 SPF)
    Compression mode            : Lossy
    Stream size                 : 561 MiB (4%)
    Title                       : Ingles [CinemaniaHDD]
    Language                    : English
    Service kind                : Complete Main
    Default                     : No
    Forced                      : No

    Text #1
    ID                          : 4
    Format                      : UTF-8
    Codec ID                    : S_TEXT/UTF8
    Codec ID/Info               : UTF-8 Plain Text
    Duration                    : 1 h 48 min
    Bit rate                    : 4 b/s
    Count of elements           : 124
    Stream size                 : 3.49 KiB (0%)
    Title                       : Forzados-SRT [CinemaniaHDD]
    Language                    : Spanish
    Default                     : Yes
    Forced                      : Yes

    Text #2
    ID                          : 5
    Format                      : UTF-8
    Codec ID                    : S_TEXT/UTF8
    Codec ID/Info               : UTF-8 Plain Text
    Duration                    : 1 h 54 min
    Bit rate                    : 47 b/s
    Count of elements           : 1422
    Stream size                 : 39.7 KiB (0%)
    Title                       : Español-SRT [CinemaniaHDD]
    Language                    : Spanish
    Default                     : No
    Forced                      : No

    Text #3
    ID                          : 6
    Format                      : UTF-8
    Codec ID                    : S_TEXT/UTF8
    Codec ID/Info               : UTF-8 Plain Text
    Duration                    : 2 h 2 min
    Bit rate                    : 50 b/s
    Count of elements           : 1775
    Stream size                 : 45.4 KiB (0%)
    Title                       : Ingles-SRT [CinemaniaHDD]
    Language                    : English
    Default                     : No
    Forced                      : No

  • Peso: 13.7 GiB

Sinopsis

Descargar Agentes 355 (2022) AMZN WEB-DL 4K UHD HDR Latino. Thriller de espionaje -ideado y producido por Jessica Chastain- sobre cinco mujeres que se unen, superando sus rencillas y conflictos personales, para usar sus respectivos talentos y experiencia con un objetivo: intentar evitar que una poderosa organización adquiera un arma que empuje al tambaleante mundo al caos total. En el camino, estas mujeres se convertirán en camaradas y amigas, formando un nuevo grupo cuyo nombre en clave es «355», nombre que adoptan de la primera mujer espía en la Revolución Americana.

Ficha técnica

Video trailer de la película

Enlaces de descarga

Rip de Bluray

Descargar Agentes 355 (2022) AMZN WEB-DL 4K UHD HDR Latino




Aportes de DPeliculasHDmega la pass es:dpeliculashdmega.org Aportes de CinemaniaHD la pass es:cinemaniahdd.com
Guardado en : 4K HDR , 4K UHD , Acción , Suspenso

Películas relacionadas

Agentes 355 (2022) AMZN WEB-DL 4K UHD HDR Latino pelicula full hd, Agentes 355 (2022) AMZN WEB-DL 4K UHD HDR Latino mega latino, Agentes 355 (2022) AMZN WEB-DL 4K UHD HDR Latino 4k latino, Agentes 355 (2022) AMZN WEB-DL 4K UHD HDR Latino pelicula completa, Agentes 355 (2022) AMZN WEB-DL 4K UHD HDR Latino descargar gratis, descargar Agentes 355 (2022) AMZN WEB-DL 4K UHD HDR Latino pelicula latino, Agentes 355 (2022) AMZN WEB-DL 4K UHD HDR Latino 1 link mega, Agentes 355 (2022) AMZN WEB-DL 4K UHD HDR Latino 1 link google drive, Agentes 355 (2022) AMZN WEB-DL 4K UHD HDR Latino hd 1080p latino.
Comentarios 0