Age of Samurai: Battle for Japan (2021) Temporada 1 NF WEB-DL 1080p Latino

76 vistas
1 estrella2 estrellas3 estrellas4 estrellas5 estrellas (1 votos, promedio: 5,00 de 5)
Cargando...

Información de Age of Samurai: Battle for Japan (2021) Temporada 1 NF WEB-DL 1080p Latino

Datos de la película

  • Calidad:
  • Audio: Español Latino AC3 5.1 Netflix - Ingles AC3 5.1 Netflix
  • Subtitulos: Español Latino SRT- FORZADOS SRT
  • Resolución: 1920x1080
  • Formato: MKV
  • Codec: H.264
  • Encoder: cinemaniahdd
  • Mediainfo: Clic para Mostrar Datos Ver
  • Age of Samurai. Battle for Japan T01E01 NF WEB-DL 1080p Latino [CNMNHDD].mkv
    Format                      : Matroska
    Format version              : Version 4
    File size                   : 1.67 GiB
    Duration                    : 42 min 48 s
    Overall bit rate mode       : Variable
    Overall bit rate            : 5 574 kb/s
    Movie name                  : Age of Samurai. Battle for Japan T01E01 - CinemaniaHDD.Net
    Encoded date                : UTC 2021-02-25 01:13:25
    Writing application         : mkvmerge v49.0.0 ('Sick Of Losing Soulmates') 64-bit
    Writing library             : libebml v1.4.0 + libmatroska v1.6.1

    Video
    ID                          : 1
    Format                      : AVC
    Format/Info                 : Advanced Video Codec
    Format profile              : Main@L4
    Format settings             : CABAC / 3 Ref Frames
    Format settings, CABAC      : Yes
    Format settings, Reference  : 3 frames
    Codec ID                    : V_MPEG4/ISO/AVC
    Duration                    : 42 min 48 s
    Bit rate mode               : Variable
    Bit rate                    : 4 870 kb/s
    Maximum bit rate            : 7 305 kb/s
    Width                       : 1 920 pixels
    Height                      : 1 080 pixels
    Display aspect ratio        : 16:9
    Frame rate mode             : Constant
    Frame rate                  : 23.976 (24000/1001) FPS
    Color space                 : YUV
    Chroma subsampling          : 4:2:0
    Bit depth                   : 8 bits
    Scan type                   : Progressive
    Bits/(Pixel*Frame)          : 0.098
    Stream size                 : 1.44 GiB (86%)
    Title                       : CinemaniaHDD
    Writing library             : x264 core 148 r2722 1b0121b
    Encoding settings           : cabac=1 / ref=3 / deblock=1:0:0 / analyse=0x1:0x111 / me=umh / subme=10 / psy=1 / psy_rd=1.00:0.00 / mixed_ref=1 / me_range=24 / chroma_me=1 / trellis=2 / 8x8dct=0 / cqm=0 / deadzone=21,11 / fast_pskip=1 / chroma_qp_offset=-2 / threads=6 / lookahead_threads=1 / sliced_threads=0 / nr=0 / decimate=1 / interlaced=0 / bluray_compat=0 / stitchable=1 / constrained_intra=0 / bframes=2 / b_pyramid=0 / b_adapt=2 / b_bias=0 / direct=3 / weightb=1 / open_gop=0 / weightp=2 / keyint=250 / keyint_min=23 / scenecut=0 / intra_refresh=0 / rc_lookahead=48 / rc=2pass / mbtree=1 / bitrate=4870 / ratetol=1.0 / qcomp=0.50 / qpmin=6 / qpmax=51 / qpstep=4 / cplxblur=20.0 / qblur=0.5 / vbv_maxrate=7305 / vbv_bufsize=9740 / nal_hrd=vbr / filler=0 / ip_ratio=1.40 / aq=1:1.00
    Default                     : Yes
    Forced                      : No

    Audio #1
    ID                          : 2
    Format                      : AC-3
    Format/Info                 : Audio Coding 3
    Commercial name             : Dolby Digital
    Codec ID                    : A_AC3
    Duration                    : 42 min 48 s
    Bit rate mode               : Constant
    Bit rate                    : 384 kb/s
    Channel(s)                  : 6 channels
    Channel layout              : L R C LFE Ls Rs
    Sampling rate               : 48.0 kHz
    Frame rate                  : 31.250 FPS (1536 SPF)
    Compression mode            : Lossy
    Stream size                 : 118 MiB (7%)
    Title                       : Español latino [CinemaniaHDD]
    Language                    : Spanish
    Service kind                : Complete Main
    Default                     : Yes
    Forced                      : No

    Audio #2
    ID                          : 3
    Format                      : AC-3
    Format/Info                 : Audio Coding 3
    Commercial name             : Dolby Digital
    Codec ID                    : A_AC3
    Duration                    : 42 min 48 s
    Bit rate mode               : Constant
    Bit rate                    : 384 kb/s
    Channel(s)                  : 6 channels
    Channel layout              : L R C LFE Ls Rs
    Sampling rate               : 48.0 kHz
    Frame rate                  : 31.250 FPS (1536 SPF)
    Compression mode            : Lossy
    Stream size                 : 118 MiB (7%)
    Title                       : Inglés [CinemaniaHDD]
    Language                    : English
    Service kind                : Complete Main
    Default                     : No
    Forced                      : No

    Text #1
    ID                          : 4
    Format                      : UTF-8
    Codec ID                    : S_TEXT/UTF8
    Codec ID/Info               : UTF-8 Plain Text
    Duration                    : 41 min 36 s
    Bit rate                    : 3 b/s
    Count of elements           : 40
    Stream size                 : 1.01 KiB (0%)
    Title                       : Forzados [CinemaniaHDD]
    Language                    : Spanish
    Default                     : Yes
    Forced                      : Yes

    Text #2
    ID                          : 5
    Format                      : UTF-8
    Codec ID                    : S_TEXT/UTF8
    Codec ID/Info               : UTF-8 Plain Text
    Duration                    : 41 min 36 s
    Bit rate                    : 68 b/s
    Count of elements           : 445
    Stream size                 : 20.9 KiB (0%)
    Title                       : Español latino [CinemaniaHDD]
    Language                    : Spanish
    Default                     : No
    Forced                      : No

     

  • Peso: 1.67 GiB Aprox ---- 8 GiB in 6 Chapters.

Sinopsis

Con dramatizaciones y comentarios de expertos, cobra vida la turbulenta historia de las luchas de poder en el Japón feudal del siglo XVI.

Ficha técnica

  • Titulo original: Age of Samurai: Battle for Japan
  • Fecha de lanzamiento: 24-02-2021 (US)
  • Género: Documental, Netflix, Series
  • Puntuación: 5.0 1 votos
  • Duración:
    0h 45m

Video trailer de la película

Enlaces de descarga

Rip de Bluray

Descargar Age of Samurai: Battle for Japan (2021) Temporada 1 NF WEB-DL 1080p Latino




Aportes de DPeliculasHDmega la pass es:dpeliculashdmega.org Aportes de CinemaniaHD la pass es:cinemaniahdd.com
Guardado en : Documental , Netflix , Series

Películas relacionadas

Age of Samurai: Battle for Japan (2021) Temporada 1 NF WEB-DL 1080p Latino pelicula full hd, Age of Samurai: Battle for Japan (2021) Temporada 1 NF WEB-DL 1080p Latino mega latino, Age of Samurai: Battle for Japan (2021) Temporada 1 NF WEB-DL 1080p Latino 4k latino, Age of Samurai: Battle for Japan (2021) Temporada 1 NF WEB-DL 1080p Latino pelicula completa, Age of Samurai: Battle for Japan (2021) Temporada 1 NF WEB-DL 1080p Latino descargar gratis, descargar Age of Samurai: Battle for Japan (2021) Temporada 1 NF WEB-DL 1080p Latino pelicula latino, Age of Samurai: Battle for Japan (2021) Temporada 1 NF WEB-DL 1080p Latino 1 link mega, Age of Samurai: Battle for Japan (2021) Temporada 1 NF WEB-DL 1080p Latino 1 link google drive, Age of Samurai: Battle for Japan (2021) Temporada 1 NF WEB-DL 1080p Latino hd 1080p latino.
Comentarios 0