×

¿Problemas para descargar con Mozilla, EDGE? Deshabilita la opción "Abrir vinculos en una pestaña nueva" tal como lo muestra ésta imagen.

Afuera Del Tiempo (2019) AMZN WEB-DL 1080p Latino

154 vistas

Información de Afuera Del Tiempo (2019) AMZN WEB-DL 1080p Latino

Datos de la película

  • Calidad:
  • Audio: Español Latino AC3 2.0
  • Subtitulos: Español Latino SRT
  • Resolución: 1920x960
  • Formato: MKV
  • Codec: H.264
  • Encoder: cinemaniahdd
  • Mediainfo: Clic para Mostrar Datos Ver
  • Afuera Del Tiempo (2019) AMZN WEB-DL 1080p Latino [CNMNHDD].mkv
    Format                      : Matroska
    Format version              : Version 4
    File size                   : 3.17 GiB
    Duration                    : 1 h 20 min
    Overall bit rate            : 5 647 kb/s
    Movie name                  : Afuera Del Tiempo (2019) - CinemaniaHDD.Net
    Encoded date                : UTC 2021-11-29 02:18:08
    Writing application         : mkvmerge v56.1.0 ('My Friend') 64-bit
    Writing library             : libebml v1.4.2 + libmatroska v1.6.4

    Video
    ID                          : 1
    Format                      : AVC
    Format/Info                 : Advanced Video Codec
    Format profile              : High@L4
    Format settings             : CABAC / 4 Ref Frames
    Format settings, CABAC      : Yes
    Format settings, Reference  : 4 frames
    Codec ID                    : V_MPEG4/ISO/AVC
    Duration                    : 1 h 20 min
    Bit rate mode               : Constant
    Bit rate                    : 5 261 kb/s
    Nominal bit rate            : 10 000 kb/s
    Width                       : 1 920 pixels
    Height                      : 960 pixels
    Display aspect ratio        : 2.000
    Frame rate mode             : Constant
    Frame rate                  : 23.976 (24000/1001) FPS
    Color space                 : YUV
    Chroma subsampling          : 4:2:0
    Bit depth                   : 8 bits
    Scan type                   : Progressive
    Bits/(Pixel*Frame)          : 0.119
    Stream size                 : 2.95 GiB (93%)
    Title                       : CinemaniaHDD
    Default                     : Yes
    Forced                      : No
    Color range                 : Limited
    Color primaries             : BT.709
    Transfer characteristics    : BT.709
    Matrix coefficients         : BT.709

    Audio
    ID                          : 2
    Format                      : AC-3
    Format/Info                 : Audio Coding 3
    Commercial name             : Dolby Digital
    Codec ID                    : A_AC3
    Duration                    : 1 h 20 min
    Bit rate mode               : Constant
    Bit rate                    : 384 kb/s
    Channel(s)                  : 2 channels
    Channel layout              : L R
    Sampling rate               : 48.0 kHz
    Frame rate                  : 31.250 FPS (1536 SPF)
    Compression mode            : Lossy
    Stream size                 : 220 MiB (7%)
    Title                       : Español latino [CinemaniaHDD]
    Language                    : Spanish
    Service kind                : Complete Main
    Default                     : Yes
    Forced                      : No

    Text #1
    ID                          : 3
    Format                      : UTF-8
    Codec ID                    : S_TEXT/UTF8
    Codec ID/Info               : UTF-8 Plain Text
    Duration                    : 1 h 13 min
    Bit rate                    : 63 b/s
    Count of elements           : 1280
    Stream size                 : 33.9 KiB (0%)
    Title                       : Español latino [CinemaniaHDD]
    Language                    : Spanish
    Default                     : No
    Forced                      : No

    Text #2
    ID                          : 4
    Format                      : UTF-8
    Codec ID                    : S_TEXT/UTF8
    Codec ID/Info               : UTF-8 Plain Text
    Duration                    : 1 h 19 min
    Bit rate                    : 72 b/s
    Count of elements           : 1683
    Stream size                 : 42.6 KiB (0%)
    Title                       : Español latino / SDH [CinemaniaHDD]
    Language                    : Spanish
    Default                     : No
    Forced                      : No

     

  • Peso: 3.17 GiB

Sinopsis

Ricardo siempre le ha terminado a todas sus novias, pero una se le adelanta justo, cuando él le propone matrimonio. Tendrá un tratamiento que lo llevará al pasado para poder recuperar a Sara.

Ficha técnica

Video trailer de la película

Enlaces de descarga

Rip de Bluray

Descargar Afuera Del Tiempo (2019) AMZN WEB-DL 1080p Latino




Aportes de DPeliculasHDmega la pass es:dpeliculashdmega.org Aportes de CinemaniaHD la pass es:cinemaniahdd.com
Guardado en : Ciencia ficción , Comedia

Películas relacionadas

  • Ad Astra (2019) REMUX 4K HDR Latino – CMHDD

    Ad Astra (2019) REMUX 4K HDR Latino – CMHDD

    2019
    Ad Astra (2019) REMUX 4K HDR Latino – CMHDD

    2h 3m 2019

    El futuro cercano, un tiempo en el que tanto la esperanza como la adversidad impulsan a la humanidad...

    Director: Sharron Reynolds-Enriquez

    Género: Ciencia ficción

    Actores: Zoro Saro Manuel Daghlian

  • La Guerra Del Futuro (2022) NF WEB-DL 1080p Latino

    La Guerra Del Futuro (2022) NF WEB-DL 1080p Latino

    2022
    La Guerra Del Futuro (2022) NF WEB-DL 1080p Latino

    1h 41m 2022

    Descargar La Guerra Del Futuro (2022) NF WEB-DL 1080p Latino. Tras la caída de un meteorito que alberga...

    Director: Ng Yuen-fai

    Género: Acción

    Actores: Tse Kwan-Ho

  • Super… ¿quién? (2021) HD 1080p Latino

    Super… ¿quién? (2021) HD 1080p Latino

    2022
    Super… ¿quién? (2021) HD 1080p Latino

    1h 22m 2022

    Descargar Super... ¿quién? (2021) HD 1080p Latino. Cedric (Philippe Lacheau) intenta ganarse la vida...

    Director: Philippe Lacheau

    Género: Acción

    Actores: Yves Yan

descargar Afuera Del Tiempo (2019) AMZN WEB-DL 1080p Latino 1080p gratis, Afuera Del Tiempo (2019) AMZN WEB-DL 1080p Latino mega 1 link, Afuera Del Tiempo (2019) AMZN WEB-DL 1080p Latino pelicula completa, descargar Afuera Del Tiempo (2019) AMZN WEB-DL 1080p Latino gratis en mega.

Afuera Del Tiempo (2019) AMZN WEB-DL 1080p Latino pelicula full hd, Afuera Del Tiempo (2019) AMZN WEB-DL 1080p Latino mega latino, Afuera Del Tiempo (2019) AMZN WEB-DL 1080p Latino 4k latino, Afuera Del Tiempo (2019) AMZN WEB-DL 1080p Latino pelicula completa, Afuera Del Tiempo (2019) AMZN WEB-DL 1080p Latino descargar gratis, descargar Afuera Del Tiempo (2019) AMZN WEB-DL 1080p Latino pelicula latino, Afuera Del Tiempo (2019) AMZN WEB-DL 1080p Latino 1 link mega, Afuera Del Tiempo (2019) AMZN WEB-DL 1080p Latino 1 link google drive, Afuera Del Tiempo (2019) AMZN WEB-DL 1080p Latino hd 1080p latino.
Comentarios 0