After Life (2019) Temporada 1 NF 1080p Latino

505 vistas
1 estrella2 estrellas3 estrellas4 estrellas5 estrellas (Ninguna valoración todavía)
Cargando…

Información de After Life (2019) Temporada 1 NF 1080p Latino

Datos de la película

  • Calidad: WEBDL
  • Audio: Español Latino E-AC3 5.1 Netflix - Ingles E-AC3 5.1 Netflix
  • Subtitulos: Español Latino SRT- FORZADOS SRT
  • Resolución: 1920x1080
  • Formato: MKV
  • Codec: H.264
  • Encoder: Chesse92
  • Mediainfo: Clic para Mostrar Datos Ver
  • After Life Más allá de mi mujer S01E01.mkv
    Format                      : Matroska
    Format version              : Version 4
    File size                   : 1.22 GiB
    Duration                    : 28 min 34 s
    Overall bit rate mode       : Variable
    Overall bit rate            : 6 108 kb/s
    Movie name                  : After Life Más allá de mi mujer S01E01
    Encoded date                : UTC 2019-03-08 09:30:10 / UTC 2019-02-28 10:22:42
    Writing application         : mkvmerge v11.0.0 ('Alive') 64bit
    Writing library             : libebml v1.3.4 + libmatroska v1.4.5 / Lavf58.0.0

    Video
    ID                          : 1
    Format                      : AVC
    Format/Info                 : Advanced Video Codec
    Format profile              : [email protected]
    Format settings             : CABAC / 3 Ref Frames
    Format settings, CABAC      : Yes
    Format settings, ReFrames   : 3 frames
    Codec ID                    : V_MPEG4/ISO/AVC
    Duration                    : 28 min 34 s
    Bit rate mode               : Variable
    Bit rate                    : 5 219 kb/s
    Nominal bit rate            : 5 620 kb/s
    Maximum bit rate            : 8 430 kb/s
    Width                       : 1 920 pixels
    Height                      : 1 080 pixels
    Display aspect ratio        : 16:9
    Frame rate mode             : Constant
    Frame rate                  : 25.000 FPS
    Color space                 : YUV
    Chroma subsampling          : 4:2:0
    Bit depth                   : 8 bits
    Scan type                   : Progressive
    Bits/(Pixel*Frame)          : 0.101
    Stream size                 : 1.04 GiB (85%)
    Title                       : CinemaniaHDD
    Writing library             : x264 core 148 r2715 7e75228
    Encoding settings           : cabac=1 / ref=3 / deblock=1:0:0 / analyse=0x1:0x111 / me=umh / subme=10 / psy=1 / psy_rd=1.00:0.00 / mixed_ref=1 / me_range=24 / chroma_me=1 / trellis=2 / 8x8dct=0 / cqm=0 / deadzone=21,11 / fast_pskip=1 / chroma_qp_offset=-2 / threads=6 / lookahead_threads=1 / sliced_threads=0 / nr=0 / decimate=1 / interlaced=0 / bluray_compat=0 / stitchable=1 / constrained_intra=0 / bframes=2 / b_pyramid=0 / b_adapt=2 / b_bias=0 / direct=3 / weightb=1 / open_gop=0 / weightp=2 / keyint=50 / keyint_min=26 / scenecut=0 / intra_refresh=0 / rc_lookahead=50 / rc=2pass / mbtree=1 / bitrate=5620 / ratetol=1.0 / qcomp=0.50 / qpmin=6 / qpmax=51 / qpstep=4 / cplxblur=20.0 / qblur=0.5 / vbv_maxrate=8430 / vbv_bufsize=11240 / nal_hrd=vbr / filler=0 / ip_ratio=1.40 / aq=1:1.00
    Default                     : Yes
    Forced                      : No
    Statistics Tags Issue       : mkvmerge v11.0.0 ('Alive') 64bit 2019-03-08 09:30:10 / mkvmerge v11.0.0 ('Alive') 64bit 2019-03-08 09:30:10 / UTC 2019-02-28 10:22:42
    FromStats_BitRate           : 5338649
    FromStats_Duration          : 00:28:34.360000000
    FromStats_FrameCount        : 42859
    FromStats_StreamSize        : 1144045917

    Audio #1
    ID                          : 2
    Format                      : AC-3
    Format/Info                 : Audio Coding 3
    Commercial name             : Dolby Digital
    Codec ID                    : A_AC3
    Duration                    : 28 min 34 s
    Bit rate mode               : Constant
    Bit rate                    : 384 kb/s
    Channel(s)                  : 6 channels
    Channel layout              : L R C LFE Ls Rs
    Sampling rate               : 48.0 kHz
    Frame rate                  : 31.250 FPS (1536 SPF)
    Bit depth                   : 16 bits
    Compression mode            : Lossy
    Stream size                 : 78.5 MiB (6%)
    Title                       : Español latino [CinemaniaHDD]
    Language                    : Spanish
    Service kind                : Complete Main
    Default                     : Yes
    Forced                      : No
    Encoded date                : UTC 2019-02-28 10:22:43
    Statistics Tags Issue       : mkvmerge v11.0.0 ('Alive') 64bit 2019-03-08 09:30:10 / mkvmerge v11.0.0 ('Alive') 64bit 2019-03-08 09:30:10 / UTC 2019-02-28 10:22:42
    FromStats_BitRate           : 384000
    FromStats_Duration          : 00:28:34.592000000
    FromStats_FrameCount        : 53581
    FromStats_StreamSize        : 82300416

    Audio #2
    ID                          : 3
    Format                      : AC-3
    Format/Info                 : Audio Coding 3
    Commercial name             : Dolby Digital
    Codec ID                    : A_AC3
    Duration                    : 28 min 34 s
    Bit rate mode               : Constant
    Bit rate                    : 384 kb/s
    Channel(s)                  : 6 channels
    Channel layout              : L R C LFE Ls Rs
    Sampling rate               : 48.0 kHz
    Frame rate                  : 31.250 FPS (1536 SPF)
    Bit depth                   : 16 bits
    Compression mode            : Lossy
    Stream size                 : 78.5 MiB (6%)
    Title                       : Inglés [CinemaniaHDD]
    Language                    : English
    Service kind                : Complete Main
    Default                     : No
    Forced                      : No
    Encoded date                : UTC 2019-02-28 10:22:42
    Statistics Tags Issue       : mkvmerge v11.0.0 ('Alive') 64bit 2019-03-08 09:30:10 / mkvmerge v11.0.0 ('Alive') 64bit 2019-03-08 09:30:10 / UTC 2019-02-28 10:22:42
    FromStats_BitRate           : 384000
    FromStats_Duration          : 00:28:34.592000000
    FromStats_FrameCount        : 53581
    FromStats_StreamSize        : 82300416

    Text #1
    ID                          : 4
    Format                      : UTF-8
    Codec ID                    : S_TEXT/UTF8
    Codec ID/Info               : UTF-8 Plain Text
    Title                       : Forzados [CinemaniaHDD]
    Language                    : Spanish
    Default                     : Yes
    Forced                      : Yes
    Statistics Tags Issue       : mkvmerge v11.0.0 ('Alive') 64bit 2019-03-08 09:30:10 / mkvmerge v11.0.0 ('Alive') 64bit 2019-03-08 09:30:10 / UTC 2019-02-28 10:22:42
    FromStats_BitRate           : 1
    FromStats_Duration          : 00:27:36.640000000
    FromStats_FrameCount        : 9
    FromStats_StreamSize        : 301

    Text #2
    ID                          : 5
    Format                      : UTF-8
    Codec ID                    : S_TEXT/UTF8
    Codec ID/Info               : UTF-8 Plain Text
    Title                       : Español latino [CinemaniaHDD]
    Language                    : Spanish
    Default                     : No
    Forced                      : No
    Statistics Tags Issue       : mkvmerge v11.0.0 ('Alive') 64bit 2019-03-08 09:30:10 / mkvmerge v11.0.0 ('Alive') 64bit 2019-03-08 09:30:10 / UTC 2019-02-28 10:22:42
    FromStats_BitRate           : 67
    FromStats_Duration          : 00:27:36.640000000
    FromStats_FrameCount        : 519
    FromStats_StreamSize        : 13956

  • Peso: 1.2 GB Aproximado por capitulo (7.35 GB Total)

Sinopsis

After Life es una comedia oscura  que sigue la historia de Tony, quien tenía una vida perfecta hasta que su esposa (Lisa) muere de repente. A partir de este momento Tony cambia completamente, se vuelve una persona apenada y con una actitud muy impulsiva. El desconsolado viudo llega hasta pensar en quitarse la vida, pero decide seguir viviendo y castigar al resto mundo haciendo y diciendo lo que quiera. La gente de su alrededor intenta que vuelva el chico agradable que conocían.

Ficha técnica

  • Titulo original: After Life
  • Fecha de lanzamiento: 08-03-2019
  • Director: Ricky Gervais
  • Género: Comedia, Series
  • Puntuación: 0.0 0 votos
  • Duración:
    0h 0m

Video trailer de la película

Enlaces de descarga

Rip de Bluray

Descargar After Life (2019) Temporada 1 NF 1080p Latino




Aportes de DPeliculasHDmega la pass es:dpeliculashdmega.org Aportes de CinemaniaHD la pass es:cinemaniahdd.com
Guardado en : Comedia , Series

Películas relacionadas

  • WiFi Ralph (2018) 4K UHD HDR Latino

    2018
    WiFi Ralph (2018) 4K UHD HDR Latino

    0.0 1h 52m 2018

    Descargar WiFi Ralph (2018) 4K UHD HDR Latino, Mega, Google Drive. Ralph sale de los recreativos y......

    Director: Rich Moore

    Género: 4K HDR

    Actores: Wayne Sermon

  • Swing (2018) WEB-DL 1080p Latino

    2018
    Swing (2018) WEB-DL 1080p Latino

    0.0 1h 44m 2018

    En una noche en la que predomina el alcohol, cuatro amigos deciden intercambiar a sus parejas. Esta decisión...

    Director: Luis Smok

    Género: Comedia

    Actores: Tiago Correa

Comentarios 0