×

¿Problemas para descargar con Mozilla, EDGE? Deshabilita la opción "Abrir vinculos en una pestaña nueva" tal como lo muestra ésta imagen.

After: En mil pedazos (2020) REMUX 1080p Latino

277 vistas

Información de After: En mil pedazos (2020) REMUX 1080p Latino

Datos de la película

  • Calidad: Full 1080p
  • Audio: Se especifica abajo de la Sinopsis
  • Subtitulos: Español Latino SRT- FORZADOS SRT
  • Resolución: 1920x1080p
  • Formato: MKV
  • Codec: H.264
  • Encoder: Melkor
  • Mediainfo: Clic para Mostrar Datos Ver
  • After En Mil Pedazos (2020) REMUX 1080p Latino.mkv
    Format                      : Matroska
    Format version              : Version 4
    File size                   : 17.5 GiB
    Duration                    : 1 h 45 min
    Overall bit rate mode       : Variable
    Overall bit rate            : 23.6 Mb/s
    Movie name                  : After We Collided (2020) CinemaniaHDD.Net
    Encoded date                : UTC 2021-03-12 09:34:31
    Writing application         : mkvmerge v51.0.0 ('I Wish') 64-bit
    Writing library             : libebml v1.4.0 + libmatroska v1.6.2
    Attachments                 : CINEMANIAHD.png

    Video
    ID                          : 1
    Format                      : AVC
    Format/Info                 : Advanced Video Codec
    Format profile              : High@L4.1
    Format settings             : CABAC / 4 Ref Frames
    Format settings, CABAC      : Yes
    Format settings, Reference  : 4 frames
    Format settings, GOP        : M=3, N=12
    Codec ID                    : V_MPEG4/ISO/AVC
    Duration                    : 1 h 45 min
    Bit rate mode               : Variable
    Bit rate                    : 18.9 Mb/s
    Maximum bit rate            : 29.0 Mb/s
    Width                       : 1 920 pixels
    Height                      : 1 080 pixels
    Display aspect ratio        : 16:9
    Frame rate mode             : Constant
    Frame rate                  : 24.000 FPS
    Color space                 : YUV
    Chroma subsampling          : 4:2:0
    Bit depth                   : 8 bits
    Scan type                   : Progressive
    Bits/(Pixel*Frame)          : 0.380
    Stream size                 : 14.0 GiB (80%)
    Title                       : REMUX HD1080p [CinemaniaHDD]
    Default                     : Yes
    Forced                      : No

    Audio #1
    ID                          : 2
    Format                      : AC-3
    Format/Info                 : Audio Coding 3
    Commercial name             : Dolby Digital
    Codec ID                    : A_AC3
    Duration                    : 1 h 45 min
    Bit rate mode               : Constant
    Bit rate                    : 640 kb/s
    Channel(s)                  : 6 channels
    Channel layout              : L R C LFE Ls Rs
    Sampling rate               : 48.0 kHz
    Frame rate                  : 31.250 FPS (1536 SPF)
    Compression mode            : Lossy
    Stream size                 : 485 MiB (3%)
    Title                       : Español Latino [CinemaniaHDD]
    Language                    : Spanish
    Service kind                : Complete Main
    Default                     : Yes
    Forced                      : No

    Audio #2
    ID                          : 3
    Format                      : DTS XLL
    Format/Info                 : Digital Theater Systems
    Commercial name             : DTS-HD Master Audio
    Codec ID                    : A_DTS
    Duration                    : 1 h 45 min
    Bit rate mode               : Variable
    Bit rate                    : 4 101 kb/s
    Channel(s)                  : 6 channels
    Channel layout              : C L R Ls Rs LFE
    Sampling rate               : 48.0 kHz
    Frame rate                  : 93.750 FPS (512 SPF)
    Bit depth                   : 24 bits
    Compression mode            : Lossless
    Stream size                 : 3.03 GiB (17%)
    Title                       : Ingles [CinemaniaHDD]
    Language                    : English
    Default                     : No
    Forced                      : No

    Text #1
    ID                          : 4
    Format                      : UTF-8
    Codec ID                    : S_TEXT/UTF8
    Codec ID/Info               : UTF-8 Plain Text
    Duration                    : 1 h 27 min
    Bit rate                    : 1 b/s
    Count of elements           : 19
    Stream size                 : 735 Bytes (0%)
    Title                       : Forzados-SRT [CinemaniaHDD]
    Language                    : Spanish
    Default                     : Yes
    Forced                      : No

    Text #2
    ID                          : 5
    Format                      : UTF-8
    Codec ID                    : S_TEXT/UTF8
    Codec ID/Info               : UTF-8 Plain Text
    Duration                    : 1 h 39 min
    Bit rate                    : 56 b/s
    Count of elements           : 1534
    Stream size                 : 41.4 KiB (0%)
    Title                       : Español-SRT [CinemaniaHDD]
    Language                    : Spanish
    Default                     : No
    Forced                      : No

    Text #3
    ID                          : 6
    Format                      : UTF-8
    Codec ID                    : S_TEXT/UTF8
    Codec ID/Info               : UTF-8 Plain Text
    Duration                    : 1 h 39 min
    Bit rate                    : 58 b/s
    Count of elements           : 1475
    Stream size                 : 42.5 KiB (0%)
    Title                       : Ingles-SRT [CinemaniaHDD]
    Language                    : English
    Default                     : No
    Forced                      : No

    Menu
    00:00:00.000                : en:Chapter 01
    00:08:40.750                : en:Chapter 02
    00:18:39.208                : en:Chapter 03
    00:27:14.208                : en:Chapter 04
    00:37:08.042                : en:Chapter 05
    00:44:45.583                : en:Chapter 06
    00:54:52.417                : en:Chapter 07
    01:03:24.750                : en:Chapter 08
    01:11:10.667                : en:Chapter 09
    01:19:24.500                : en:Chapter 10
    01:30:20.208                : en:Chapter 11
    01:38:32.417                : en:Chapter 12

  • Peso: 17.5 GiB

Sinopsis

Descargar After: En mil pedazos (2020) REMUX 1080p Latino. Ha pasado el tiempo, y Hardin todavía no se sabe si es realmente el chico profundo y reflexivo del que Tessa se enamoró, o ha sido un extraño todo este tiempo. Ella quiere alejarse, pero no es tan fácil. Tessa se ha centrado en sus estudios y comienza a trabajar como becaria en Vance Publishing. Allí conoce a Trevor, un nuevo y atractivo compañero de trabajo que es exactamente el tipo de persona con la que debería estar. Pero Hardin sabe que cometió un error, posiblemente el más grande de su vida y quiere corregir sus errores y vencer a sus demonios.

Español Latino AC3 5.1 WebDL – Ingles DTS-HD 5.1 Bluray

Ficha técnica

  • Titulo original: After We Collided
  • Fecha de lanzamiento: 02-09-2020 (United States of America)
  • Director: Roger Kumble
  • Género: Drama, Remux, Romance

Video trailer de la película

Enlaces de descarga

Rip de Bluray

Descargar After: En mil pedazos (2020) REMUX 1080p Latino




Aportes de DPeliculasHDmega la pass es:dpeliculashdmega.org Aportes de CinemaniaHD la pass es:cinemaniahdd.com
Guardado en : Drama , Remux , Romance

Películas relacionadas

descargar After: En mil pedazos (2020) REMUX 1080p Latino Full 1080p 1080p gratis, After: En mil pedazos (2020) REMUX 1080p Latino Full 1080p mega 1 link, After: En mil pedazos (2020) REMUX 1080p Latino Full 1080p pelicula completa, descargar After: En mil pedazos (2020) REMUX 1080p Latino Full 1080p gratis en mega.

After: En mil pedazos (2020) REMUX 1080p Latino pelicula full hd, After: En mil pedazos (2020) REMUX 1080p Latino mega latino, After: En mil pedazos (2020) REMUX 1080p Latino 4k latino, After: En mil pedazos (2020) REMUX 1080p Latino pelicula completa, After: En mil pedazos (2020) REMUX 1080p Latino descargar gratis, descargar After: En mil pedazos (2020) REMUX 1080p Latino pelicula latino, After: En mil pedazos (2020) REMUX 1080p Latino 1 link mega, After: En mil pedazos (2020) REMUX 1080p Latino 1 link google drive, After: En mil pedazos (2020) REMUX 1080p Latino hd 1080p latino.
Comentarios 0