×

¿Problemas para descargar con Mozilla, EDGE? Deshabilita la opción "Abrir vinculos en una pestaña nueva" tal como lo muestra ésta imagen.

After: Aquí empieza todo (2019) PLACEBO Full HD 1080p Latino

2.203 vistas

Información de After: Aquí empieza todo (2019) PLACEBO Full HD 1080p Latino

Datos de la película

  • Calidad: Full 1080p
  • Audio: Español Latino AC3 5.1 iTUNES - Ingles DTS 5.1 BLURAY
  • Subtitulos: Español Latino PGS - Ingles PGS
  • Resolución: 1920x1080p
  • Formato: MKV
  • Codec: H.264
  • Encoder: Melkor
  • Mediainfo: Clic para Mostrar Datos Ver
  • After (2019) Full HD 1080p LatinoCMHDD.mkv
    Format                      : Matroska
    Format version              : Version 4
    File size                   : 4.36 GiB
    Duration                    : 1 h 46 min
    Overall bit rate            : 5 887 kb/s
    Movie name                  : After (2019) CinemaniaHDD.Net
    Encoded date                : UTC 2019-07-12 01:24:36
    Writing application         : mkvmerge v35.0.0 ('All The Love In The World') 64-bit
    Writing library             : libebml v1.3.9 + libmatroska v1.5.2
    Attachments                 : CINEMANIAHD.png

    Video
    ID                          : 1
    Format                      : AVC
    Format/Info                 : Advanced Video Codec
    Format profile              : High@L4.1
    Format settings             : CABAC / 4 Ref Frames
    Format settings, CABAC      : Yes
    Format settings, ReFrames   : 4 frames
    Codec ID                    : V_MPEG4/ISO/AVC
    Duration                    : 1 h 46 min
    Bit rate                    : 3 914 kb/s
    Width                       : 1 920 pixels
    Height                      : 1 080 pixels
    Display aspect ratio        : 16:9
    Frame rate mode             : Constant
    Frame rate                  : 23.976 (24000/1001) FPS
    Color space                 : YUV
    Chroma subsampling          : 4:2:0
    Bit depth                   : 8 bits
    Scan type                   : Progressive
    Bits/(Pixel*Frame)          : 0.079
    Stream size                 : 2.90 GiB (66%)
    Title                       : Full HD1080p [Bluray]
    Writing library             : x264 core 157 r2935 545de2f
    Encoding settings           : cabac=1 / ref=4 / deblock=1:0:0 / analyse=0x3:0x133 / me=tesa / subme=11 / psy=1 / psy_rd=1.00:0.00 / mixed_ref=1 / me_range=24 / chroma_me=1 / trellis=2 / 8x8dct=1 / cqm=0 / deadzone=21,11 / fast_pskip=0 / chroma_qp_offset=-2 / threads=34 / lookahead_threads=8 / sliced_threads=0 / nr=0 / decimate=1 / interlaced=0 / bluray_compat=0 / constrained_intra=0 / bframes=16 / b_pyramid=2 / b_adapt=2 / b_bias=0 / direct=3 / weightb=1 / open_gop=0 / weightp=2 / keyint=240 / keyint_min=24 / scenecut=40 / intra_refresh=0 / rc_lookahead=60 / rc=crf / mbtree=1 / crf=20.0 / qcomp=0.60 / qpmin=0 / qpmax=69 / qpstep=4 / vbv_maxrate=62500 / vbv_bufsize=78125 / crf_max=0.0 / nal_hrd=none / filler=0 / ip_ratio=1.40 / aq=1:1.00
    Default                     : Yes
    Forced                      : No
    Color range                 : Limited
    Color primaries             : BT.709
    Transfer characteristics    : BT.709
    Matrix coefficients         : BT.709

    Audio #1
    ID                          : 2
    Format                      : AC-3
    Format/Info                 : Audio Coding 3
    Commercial name             : Dolby Digital
    Codec ID                    : A_AC3
    Duration                    : 1 h 46 min
    Bit rate mode               : Constant
    Bit rate                    : 448 kb/s
    Channel(s)                  : 6 channels
    Channel layout              : L R C LFE Ls Rs
    Sampling rate               : 48.0 kHz
    Frame rate                  : 31.250 FPS (1536 SPF)
    Bit depth                   : 16 bits
    Compression mode            : Lossy
    Stream size                 : 340 MiB (8%)
    Title                       : AC3_5.1_Web_Esp
    Language                    : Spanish
    Service kind                : Complete Main
    Default                     : Yes
    Forced                      : Yes

    Audio #2
    ID                          : 3
    Format                      : DTS
    Format/Info                 : Digital Theater Systems
    Codec ID                    : A_DTS
    Duration                    : 1 h 46 min
    Bit rate mode               : Constant
    Bit rate                    : 1 509 kb/s
    Channel(s)                  : 6 channels
    Channel layout              : C L R Ls Rs LFE
    Sampling rate               : 48.0 kHz
    Frame rate                  : 93.750 FPS (512 SPF)
    Bit depth                   : 24 bits
    Compression mode            : Lossy
    Stream size                 : 1.12 GiB (26%)
    Title                       : DTS_5.1_Bluray_Eng
    Language                    : English
    Default                     : No
    Forced                      : No

    Text #1
    ID                          : 4
    Format                      : PGS
    Muxing mode                 : zlib
    Codec ID                    : S_HDMV/PGS
    Codec ID/Info               : Picture based subtitle format used on BDs/HD-DVDs
    Duration                    : 1 h 44 min
    Bit rate                    : 19.1 kb/s
    Count of elements           : 1893
    Stream size                 : 14.3 MiB (0%)
    Title                       : Sub_Esp [PGS]
    Language                    : Spanish
    Default                     : No
    Forced                      : No

    Text #2
    ID                          : 5
    Format                      : PGS
    Muxing mode                 : zlib
    Codec ID                    : S_HDMV/PGS
    Codec ID/Info               : Picture based subtitle format used on BDs/HD-DVDs
    Duration                    : 1 h 37 min
    Bit rate                    : 26.1 kb/s
    Count of elements           : 2113
    Stream size                 : 18.2 MiB (0%)
    Title                       : Sub_Eng [PGS]
    Language                    : English
    Default                     : No
    Forced                      : No

    Text #3
    ID                          : 6
    Format                      : UTF-8
    Codec ID                    : S_TEXT/UTF8
    Codec ID/Info               : UTF-8 Plain Text
    Duration                    : 1 h 37 min
    Bit rate                    : 33 b/s
    Count of elements           : 946
    Stream size                 : 23.8 KiB (0%)
    Title                       : Sub_Esp
    Language                    : Spanish
    Default                     : No
    Forced                      : No

    Menu
    00:00:00.000                : :Chapter 1
    00:05:59.067                : :Chapter 2
    00:10:00.350                : :Chapter 3
    00:14:28.534                : :Chapter 4
    00:23:08.178                : :Chapter 5
    00:28:13.150                : :Chapter 6
    00:33:22.083                : :Chapter 7
    00:38:41.277                : :Chapter 8
    00:44:33.629                : :Chapter 9
    00:48:21.982                : :Chapter 10
    00:53:24.368                : :Chapter 11
    00:58:40.267                : :Chapter 12
    01:05:25.755                : :Chapter 13
    01:10:28.891                : :Chapter 14
    01:15:44.081                : :Chapter 15
    01:20:31.785                : :Chapter 16
    01:24:44.830                : :Chapter 17
    01:31:11.549                : :Chapter 18
    01:36:13.935                : :Chapter 19
    01:39:33.217                : :Chapter 20

  • Peso: 4.36 GiB

Sinopsis

Descargar After: Aquí empieza todo (2019) PLACEBO Full HD 1080p Latino. La joven Tessa Young cursa su primer año en la universidad. Acostumbrada a una vida estable y ordenada, su mundo cambia cuando conoce a Hardin Scott, un misterioso joven de oscuro pasado. Desde el primer momento se odian, porque pertenecen a dos mundos distintos y son completamente opuestos. Sin embargo, estos dos polos opuestos pronto se unirán y nada volverá a ser igual. Tessa y Hardin deberán enfrentarse a difíciles pruebas para estar juntos. La inocencia, el despertar a la vida, el descubrimiento sexual y las huellas de un amor tan poderoso como la fuerza del destino.

Audio Latino Editado Desde ITunes  Por CinemaniaHDD

Ficha técnica

Video trailer de la película

Enlaces de descarga

Rip de Bluray

Descargar After: Aquí empieza todo (2019) PLACEBO Full HD 1080p Latino




Aportes de DPeliculasHDmega la pass es:dpeliculashdmega.org Aportes de CinemaniaHD la pass es:cinemaniahdd.com

Películas relacionadas

  • Stromboli (2022) NF WEB-DL 1080p Latino

    Stromboli (2022) NF WEB-DL 1080p Latino

    2022
    Stromboli (2022) NF WEB-DL 1080p Latino

    1h 26m 2022

    Descargar Stromboli (2022) NF WEB-DL 1080p Latino. Sara, una mujer que se ha divorciado recientemente,...

    Director: Michiel van Erp

    Género: Drama

    Actores: Tim McInnerny

  • Infiesto (2023) NF WEB-DL 1080p Castellano

    Infiesto (2023) NF WEB-DL 1080p Castellano

    2023
    Infiesto (2023) NF WEB-DL 1080p Castellano

    1h 36m 2023

    Descargar Infiesto (2023) NF WEB-DL 1080p Castellano. Mientras el coronavirus trastoca sus vidas, dos...

    Director: Patxi Amezcua

    Género: Crimen

    Actores: Luis Zahera

  • Espiritu Libre (2023) NF WEB-DL 1080p Latino

    Espiritu Libre (2023) NF WEB-DL 1080p Latino

    2023
    Espiritu Libre (2023) NF WEB-DL 1080p Latino

    1h 49m 2023

    Descargar Espiritu Libre (2023) NF WEB-DL 1080p Latino. La película se basa en la increíble historia...

    Director: Sarah Spillane

    Género: Aventura

    Actores: Vivien Turner

descargar After: Aquí empieza todo (2019) PLACEBO Full HD 1080p Latino Full 1080p 1080p gratis, After: Aquí empieza todo (2019) PLACEBO Full HD 1080p Latino Full 1080p mega 1 link, After: Aquí empieza todo (2019) PLACEBO Full HD 1080p Latino Full 1080p pelicula completa, descargar After: Aquí empieza todo (2019) PLACEBO Full HD 1080p Latino Full 1080p gratis en mega.

After: Aquí empieza todo (2019) PLACEBO Full HD 1080p Latino pelicula full hd, After: Aquí empieza todo (2019) PLACEBO Full HD 1080p Latino mega latino, After: Aquí empieza todo (2019) PLACEBO Full HD 1080p Latino 4k latino, After: Aquí empieza todo (2019) PLACEBO Full HD 1080p Latino pelicula completa, After: Aquí empieza todo (2019) PLACEBO Full HD 1080p Latino descargar gratis, descargar After: Aquí empieza todo (2019) PLACEBO Full HD 1080p Latino pelicula latino, After: Aquí empieza todo (2019) PLACEBO Full HD 1080p Latino 1 link mega, After: Aquí empieza todo (2019) PLACEBO Full HD 1080p Latino 1 link google drive, After: Aquí empieza todo (2019) PLACEBO Full HD 1080p Latino hd 1080p latino.
Comentarios 0