×

¿Problemas para descargar con Mozilla, EDGE? Deshabilita la opción "Abrir vinculos en una pestaña nueva" tal como lo muestra ésta imagen.

Æon Flux (2005) REMUX 1080p Latino – CMHDD

232 vistas

Información de Æon Flux (2005) REMUX 1080p Latino – CMHDD

Datos de la película

  • Calidad: Full 1080p
  • Audio: Español Latino AC3 5.1 BLURAY - Ingles AC3 5.1 BLURAY
  • Subtitulos: Español Latino SRT- FORZADOS SRT
  • Resolución: 1920x1080p
  • Formato: MKV
  • Codec: H.264
  • Encoder: Dracarys
  • Mediainfo: Clic para Mostrar Datos Ver
  • Format                      : Matroska
    Format version              : Version 4
    File size                   : 22.6 GiB
    Duration                    : 1 h 32 min
    Overall bit rate mode       : Variable
    Overall bit rate            : 34.9 Mb/s
    Movie name                  : Æon Flux (2005) REMUX 1080p Latino - CMHDD
    Encoded date                : UTC 2020-08-04 01:46:16
    Writing application         : mkvmerge v46.0.0 ('No Deeper Escape') 64-bit
    Writing library             : libebml v1.3.10 + libmatroska v1.5.2

    Video
    ID                          : 1
    Format                      : AVC
    Format/Info                 : Advanced Video Codec
    Format profile              : High@L4.1
    Format settings             : CABAC / 3 Ref Frames
    Format settings, CABAC      : Yes
    Format settings, Reference  : 3 frames
    Codec ID                    : V_MPEG4/ISO/AVC
    Duration                    : 1 h 32 min
    Bit rate mode               : Variable
    Bit rate                    : 31.1 Mb/s
    Maximum bit rate            : 40.0 Mb/s
    Width                       : 1 920 pixels
    Height                      : 1 080 pixels
    Display aspect ratio        : 16:9
    Frame rate mode             : Constant
    Frame rate                  : 23.976 (24000/1001) FPS
    Color space                 : YUV
    Chroma subsampling          : 4:2:0
    Bit depth                   : 8 bits
    Scan type                   : Progressive
    Bits/(Pixel*Frame)          : 0.626
    Stream size                 : 20.2 GiB (89%)
    Default                     : Yes
    Forced                      : No

    Audio #1
    ID                          : 2
    Format                      : AC-3
    Format/Info                 : Audio Coding 3
    Commercial name             : Dolby Digital
    Codec ID                    : A_AC3
    Duration                    : 1 h 32 min
    Bit rate mode               : Constant
    Bit rate                    : 640 kb/s
    Channel(s)                  : 6 channels
    Channel layout              : L R C LFE Ls Rs
    Sampling rate               : 48.0 kHz
    Frame rate                  : 31.250 FPS (1536 SPF)
    Compression mode            : Lossy
    Stream size                 : 425 MiB (2%)
    Language                    : Spanish
    Service kind                : Complete Main
    Default                     : Yes
    Forced                      : No

    Audio #2
    ID                          : 3
    Format                      : MLP FBA
    Format/Info                 : Meridian Lossless Packing FBA
    Commercial name             : Dolby TrueHD
    Codec ID                    : A_TRUEHD
    Duration                    : 1 h 32 min
    Bit rate mode               : Variable
    Bit rate                    : 2 397 kb/s
    Maximum bit rate            : 4 059 kb/s
    Channel(s)                  : 6 channels
    Channel layout              : L R C LFE Ls Rs
    Sampling rate               : 48.0 kHz
    Frame rate                  : 1 200.000 FPS (40 SPF)
    Compression mode            : Lossless
    Stream size                 : 1.56 GiB (7%)
    Language                    : English
    Default                     : No
    Forced                      : No

    Audio #3
    ID                          : 4
    Format                      : AC-3
    Format/Info                 : Audio Coding 3
    Commercial name             : Dolby Digital
    Codec ID                    : A_AC3
    Duration                    : 1 h 32 min
    Bit rate mode               : Constant
    Bit rate                    : 640 kb/s
    Channel(s)                  : 6 channels
    Channel layout              : L R C LFE Ls Rs
    Sampling rate               : 48.0 kHz
    Frame rate                  : 31.250 FPS (1536 SPF)
    Compression mode            : Lossy
    Stream size                 : 425 MiB (2%)
    Language                    : English
    Service kind                : Complete Main
    Default                     : No
    Forced                      : No

    Text #1
    ID                          : 5
    Format                      : PGS
    Muxing mode                 : zlib
    Codec ID                    : S_HDMV/PGS
    Codec ID/Info               : Picture based subtitle format used on BDs/HD-DVDs
    Duration                    : 1 h 24 min
    Bit rate                    : 23.0 kb/s
    Count of elements           : 1444
    Stream size                 : 14.0 MiB (0%)
    Default                     : No
    Forced                      : No

    Text #2
    ID                          : 6
    Format                      : UTF-8
    Codec ID                    : S_TEXT/UTF8
    Codec ID/Info               : UTF-8 Plain Text
    Duration                    : 4 s 963 ms
    Bit rate                    : 87 b/s
    Count of elements           : 1
    Stream size                 : 54.0 Bytes (0%)
    Title                       : Forzados
    Language                    : Spanish
    Default                     : Yes
    Forced                      : No

    Text #3
    ID                          : 7
    Format                      : UTF-8
    Codec ID                    : S_TEXT/UTF8
    Codec ID/Info               : UTF-8 Plain Text
    Duration                    : 1 h 24 min
    Bit rate                    : 36 b/s
    Count of elements           : 721
    Stream size                 : 22.8 KiB (0%)
    Language                    : Spanish
    Default                     : No
    Forced                      : No

  • Peso: 22.6 GiB

Sinopsis

Ambientada 400 años en el futuro, una plaga ha hecho desaparecer a la mayoria de la población, excepto una ciudad protegida por muros, Bregna, gobernada por un congreso de científicos. Aeon Flux (Charlize Theron) es la más importante agente de grupo rebelde ‘Monican’, liderado por Handler, (Frances McDormand). Cuando Aeon recibe las ordenes de aniquilar al líder del congreso descubre un mundo de secretos, que la llevan a cuestionarse de qué lado está realmente.

Ficha técnica

Video trailer de la película

Enlaces de descarga

Rip de Bluray

Descargar Æon Flux (2005) REMUX 1080p Latino – CMHDD




Aportes de DPeliculasHDmega la pass es:dpeliculashdmega.org Aportes de CinemaniaHD la pass es:cinemaniahdd.com
Guardado en : Acción , Ciencia ficción , Suspenso

Películas relacionadas

  • Tren Bala (2022) WEB-DL 4K UHD HDR Latino

    Tren Bala (2022) WEB-DL 4K UHD HDR Latino

    2022
    Tren Bala (2022) WEB-DL 4K UHD HDR Latino

    2h 7m 2022

    Descargar Tren Bala (2022) WEB-DL 4K UHD HDR Latino. El desafortunado asesino "Catarina" está decidido...

    Director: Paul Barry

    Género: 4K HDR

    Actores: Zooey Miyoshi

  • Tren Bala (2022) AMZN WEB-DL 1080p Latino

    Tren Bala (2022) AMZN WEB-DL 1080p Latino

    2022
    Tren Bala (2022) AMZN WEB-DL 1080p Latino

    2h 7m 2022

    Descargar Tren Bala (2022) AMZN WEB-DL 1080p Latino. Cinco asesinos a sueldo se encuentran a bordo de...

    Director: Paul Barry

    Género: Acción

    Actores: Zooey Miyoshi

  • Athena (2022) NF WEB-DL 1080p Latino

    Athena (2022) NF WEB-DL 1080p Latino

    2022
    Athena (2022) NF WEB-DL 1080p Latino

    1h 37m 2022

    Descargar Athena (2022) NF WEB-DL 1080p Latino. Horas después de la trágica muerte de su hermano menor...

    Director: Romain Gavras

    Género: Acción

    Actores: Tarek Haddaji

  • Lou (2022) NF WEB-DL 1080p Latino

    Lou (2022) NF WEB-DL 1080p Latino

    2022
    Lou (2022) NF WEB-DL 1080p Latino

    1h 47m 2022

    Descargar Lou (2022) NF WEB-DL 1080p Latino. Una mujer misteriosa y solitaria lucha contra las inclemencias...

    Director: Anna Foerster

    Género: Acción

    Actores: Toby Levins

descargar Æon Flux (2005) REMUX 1080p Latino – CMHDD Full 1080p 1080p gratis, Æon Flux (2005) REMUX 1080p Latino – CMHDD Full 1080p mega 1 link, Æon Flux (2005) REMUX 1080p Latino – CMHDD Full 1080p pelicula completa, descargar Æon Flux (2005) REMUX 1080p Latino – CMHDD Full 1080p gratis en mega.

Æon Flux (2005) REMUX 1080p Latino – CMHDD pelicula full hd, Æon Flux (2005) REMUX 1080p Latino – CMHDD mega latino, Æon Flux (2005) REMUX 1080p Latino – CMHDD 4k latino, Æon Flux (2005) REMUX 1080p Latino – CMHDD pelicula completa, Æon Flux (2005) REMUX 1080p Latino – CMHDD descargar gratis, descargar Æon Flux (2005) REMUX 1080p Latino – CMHDD pelicula latino, Æon Flux (2005) REMUX 1080p Latino – CMHDD 1 link mega, Æon Flux (2005) REMUX 1080p Latino – CMHDD 1 link google drive, Æon Flux (2005) REMUX 1080p Latino – CMHDD hd 1080p latino.
Comentarios 0