×

¿Problemas para descargar con Mozilla, EDGE? Deshabilita la opción "Abrir vinculos en una pestaña nueva" tal como lo muestra ésta imagen.

Æon Flux (2005) HD 1080p Latino – CMHDD

606 vistas

Información de Æon Flux (2005) HD 1080p Latino – CMHDD

Datos de la película

  • Calidad: 1080p
  • Audio: Español Latino AC3 5.1 BLURAY - Ingles AC3 5.1 BLURAY
  • Subtitulos: Español Latino SRT- FORZADOS SRT
  • Resolución: 1920x816p
  • Formato: MKV
  • Codec: H.264
  • Encoder: Dracarys
  • Mediainfo: Clic para Mostrar Datos Ver
  • Format                      : Matroska
    Format version              : Version 4
    File size                   : 3.06 GiB
    Duration                    : 1 h 32 min
    Overall bit rate            : 4 713 kb/s
    Movie name                  : Æon Flux (2005) HD 1080p Latino - CMHDD
    Encoded date                : UTC 2020-08-04 01:49:51
    Writing application         : mkvmerge v46.0.0 ('No Deeper Escape') 64-bit
    Writing library             : libebml v1.3.10 + libmatroska v1.5.2

    Video
    ID                          : 1
    Format                      : AVC
    Format/Info                 : Advanced Video Codec
    Format profile              : High@L4.1
    Format settings             : CABAC / 5 Ref Frames
    Format settings, CABAC      : Yes
    Format settings, Reference  : 5 frames
    Codec ID                    : V_MPEG4/ISO/AVC
    Duration                    : 1 h 32 min
    Bit rate                    : 3 500 kb/s
    Width                       : 1 920 pixels
    Height                      : 816 pixels
    Display aspect ratio        : 2.35:1
    Frame rate mode             : Constant
    Frame rate                  : 23.976 (24000/1001) FPS
    Color space                 : YUV
    Chroma subsampling          : 4:2:0
    Bit depth                   : 8 bits
    Scan type                   : Progressive
    Bits/(Pixel*Frame)          : 0.093
    Stream size                 : 2.22 GiB (73%)
    Writing library             : x264 core 157 r2935 545de2f
    Encoding settings           : cabac=1 / ref=5 / deblock=1:0:0 / analyse=0x3:0x113 / me=hex / subme=8 / psy=1 / psy_rd=1.00:0.00 / mixed_ref=1 / me_range=16 / chroma_me=1 / trellis=2 / 8x8dct=1 / cqm=0 / deadzone=21,11 / fast_pskip=1 / chroma_qp_offset=-2 / threads=24 / lookahead_threads=4 / sliced_threads=0 / nr=0 / decimate=1 / interlaced=0 / bluray_compat=0 / constrained_intra=0 / bframes=3 / b_pyramid=2 / b_adapt=1 / b_bias=0 / direct=3 / weightb=1 / open_gop=0 / weightp=2 / keyint=240 / keyint_min=24 / scenecut=40 / intra_refresh=0 / rc_lookahead=50 / rc=abr / mbtree=1 / bitrate=3500 / ratetol=1.0 / qcomp=0.60 / qpmin=0 / qpmax=69 / qpstep=4 / vbv_maxrate=62500 / vbv_bufsize=78125 / nal_hrd=none / filler=0 / ip_ratio=1.40 / aq=1:1.00
    Default                     : Yes
    Forced                      : No
    Color range                 : Limited
    Color primaries             : BT.709
    Transfer characteristics    : BT.709
    Matrix coefficients         : BT.709

    Audio #1
    ID                          : 2
    Format                      : AC-3
    Format/Info                 : Audio Coding 3
    Commercial name             : Dolby Digital
    Codec ID                    : A_AC3
    Duration                    : 1 h 32 min
    Bit rate mode               : Constant
    Bit rate                    : 640 kb/s
    Channel(s)                  : 6 channels
    Channel layout              : L R C LFE Ls Rs
    Sampling rate               : 48.0 kHz
    Frame rate                  : 31.250 FPS (1536 SPF)
    Compression mode            : Lossy
    Stream size                 : 425 MiB (14%)
    Language                    : Spanish
    Service kind                : Complete Main
    Default                     : Yes
    Forced                      : No

    Audio #2
    ID                          : 3
    Format                      : AC-3
    Format/Info                 : Audio Coding 3
    Commercial name             : Dolby Digital
    Codec ID                    : A_AC3
    Duration                    : 1 h 32 min
    Bit rate mode               : Constant
    Bit rate                    : 640 kb/s
    Channel(s)                  : 6 channels
    Channel layout              : L R C LFE Ls Rs
    Sampling rate               : 48.0 kHz
    Frame rate                  : 31.250 FPS (1536 SPF)
    Compression mode            : Lossy
    Stream size                 : 425 MiB (14%)
    Language                    : English
    Service kind                : Complete Main
    Default                     : No
    Forced                      : No

    Text #1
    ID                          : 4
    Format                      : PGS
    Muxing mode                 : zlib
    Codec ID                    : S_HDMV/PGS
    Codec ID/Info               : Picture based subtitle format used on BDs/HD-DVDs
    Duration                    : 1 h 24 min
    Bit rate                    : 23.0 kb/s
    Count of elements           : 1444
    Stream size                 : 14.0 MiB (0%)
    Default                     : No
    Forced                      : No

    Text #2
    ID                          : 5
    Format                      : UTF-8
    Codec ID                    : S_TEXT/UTF8
    Codec ID/Info               : UTF-8 Plain Text
    Duration                    : 4 s 963 ms
    Bit rate                    : 87 b/s
    Count of elements           : 1
    Stream size                 : 54.0 Bytes (0%)
    Title                       : Forzados
    Language                    : Spanish
    Default                     : Yes
    Forced                      : No

    Text #3
    ID                          : 6
    Format                      : UTF-8
    Codec ID                    : S_TEXT/UTF8
    Codec ID/Info               : UTF-8 Plain Text
    Duration                    : 1 h 24 min
    Bit rate                    : 36 b/s
    Count of elements           : 721
    Stream size                 : 22.8 KiB (0%)
    Language                    : Spanish
    Default                     : No
    Forced                      : No

    Menu
    00:00:00.000                : :Chapter 1
    00:03:43.265                : :Chapter 2
    00:05:27.786                : :Chapter 3
    00:07:27.530                : :Chapter 4
    00:09:48.755                : :Chapter 5
    00:11:34.694                : :Chapter 6
    00:14:50.390                : :Chapter 7
    00:18:12.967                : :Chapter 8
    00:19:22.787                : :Chapter 9
    00:22:07.743                : :Chapter 10
    00:24:17.456                : :Chapter 11
    00:26:31.673                : :Chapter 12
    00:29:07.829                : :Chapter 13
    00:31:02.986                : :Chapter 14
    00:33:25.879                : :Chapter 15
    00:36:20.011                : :Chapter 16
    00:38:10.121                : :Chapter 17
    00:42:48.357                : :Chapter 18
    00:43:34.987                : :Chapter 19
    00:44:39.343                : :Chapter 20
    00:48:05.966                : :Chapter 21
    00:50:32.112                : :Chapter 22
    00:52:23.641                : :Chapter 23
    00:54:07.786                : :Chapter 24
    00:59:31.234                : :Chapter 25
    01:00:22.744                : :Chapter 26
    01:02:47.305                : :Chapter 27
    01:04:47.384                : :Chapter 28
    01:06:50.673                : :Chapter 29
    01:08:09.377                : :Chapter 30
    01:08:25.226                : :Chapter 31
    01:10:44.741                : :Chapter 32
    01:15:08.629                : :Chapter 33
    01:21:09.448                : :Chapter 34
    01:24:23.475                : :Chapter 35
    01:25:49.853                : :Chapter 36

  • Peso: 3.06 GiB

Sinopsis

Ambientada 400 años en el futuro, una plaga ha hecho desaparecer a la mayoria de la población, excepto una ciudad protegida por muros, Bregna, gobernada por un congreso de científicos. Aeon Flux (Charlize Theron) es la más importante agente de grupo rebelde ‘Monican’, liderado por Handler, (Frances McDormand). Cuando Aeon recibe las ordenes de aniquilar al líder del congreso descubre un mundo de secretos, que la llevan a cuestionarse de qué lado está realmente.

Ficha técnica

Video trailer de la película

Enlaces de descarga

Rip de Bluray

Descargar Æon Flux (2005) HD 1080p Latino – CMHDD




Aportes de DPeliculasHDmega la pass es:dpeliculashdmega.org Aportes de CinemaniaHD la pass es:cinemaniahdd.com Aportes recientes:cinemaniahdd.net

Películas relacionadas

  • Familia Nacional (2023) WEB-DL 1080p Latino

    Familia Nacional (2023) WEB-DL 1080p Latino

    2023
    Familia Nacional (2023) WEB-DL 1080p Latino

    1h 43m 2023

    Descargar Familia Nacional (2023) WEB-DL 1080p Latino. Don Poli es el patriarca de una familia disfuncional...

    Director: Marcelo Tobar

    Género: Acción

    Actores: Tadeo Tovar

  • Strictly Confidential (2024) WEB-DL 1080p Latino

    Strictly Confidential (2024) WEB-DL 1080p Latino

    2024
    Strictly Confidential (2024) WEB-DL 1080p Latino

    1h 28m 2024

    Descargar Strictly Confidential (2024) WEB-DL 1080p Latino. Una joven atormentada se ve atraída por...

    Director: Damian Hurley

    Género: Misterio

    Actores: Thomas Downey

  • La Otra Cara de Dorian (2023) WEB-DL 1080p Latino

    La Otra Cara de Dorian (2023) WEB-DL 1080p Latino

    2023
    La Otra Cara de Dorian (2023) WEB-DL 1080p Latino

    1h 40m 2023

    Descargar La Otra Cara de Dorian (2023) WEB-DL 1080p Latino. Una versión moderna del cuento de Oscar...

    Director: Richard John Taylor

    Género: Drama

    Actores: Triana Terry

descargar Æon Flux (2005) HD 1080p Latino – CMHDD 1080p 1080p gratis, Æon Flux (2005) HD 1080p Latino – CMHDD 1080p mega 1 link, Æon Flux (2005) HD 1080p Latino – CMHDD 1080p pelicula completa, descargar Æon Flux (2005) HD 1080p Latino – CMHDD 1080p gratis en mega.

Æon Flux (2005) HD 1080p Latino – CMHDD pelicula full hd, Æon Flux (2005) HD 1080p Latino – CMHDD mega latino, Æon Flux (2005) HD 1080p Latino – CMHDD 4k latino, Æon Flux (2005) HD 1080p Latino – CMHDD pelicula completa, Æon Flux (2005) HD 1080p Latino – CMHDD descargar gratis, descargar Æon Flux (2005) HD 1080p Latino – CMHDD pelicula latino, Æon Flux (2005) HD 1080p Latino – CMHDD 1 link mega, Æon Flux (2005) HD 1080p Latino – CMHDD 1 link google drive, Æon Flux (2005) HD 1080p Latino – CMHDD hd 1080p latino.
Comentarios 0