Adventureland (2009) Full HD 1080p Latino

1.307 vistas
1 estrella2 estrellas3 estrellas4 estrellas5 estrellas (4 votos, promedio: 4,75 de 5)
Cargando...

Información de Adventureland (2009) Full HD 1080p Latino

Datos de la película

  • Calidad: Full 1080p
  • Audio: Español Latino AC3 5.1 DVD - Ingles DTS 5.1 BLURAY
  • Subtitulos: Español PGS - Ingles PGS
  • Resolución: 1920x1080p
  • Formato: MKV
  • Codec: H.264
  • Encoder: CinefiloCool
  • Mediainfo: Clic para Mostrar Datos Ver
  • Adventureland (2009) Full HD 1080p Latino-CMHDD.mkv
    Format                      : Matroska
    Format version              : Version 4
    File size                   : 13.7 GiB
    Duration                    : 1 h 46 min
    Overall bit rate            : 18.4 Mb/s
    Movie name                  : Adventureland (2009) CinemaniaHDD.Net
    Encoded date                : UTC 2019-08-27 20:05:41
    Writing application         : mkvmerge v35.0.0 ('All The Love In The World') 64-bit
    Writing library             : libebml v1.3.9 + libmatroska v1.5.2
    Attachments                 : CINEMANIAHD.png

    Video
    ID                          : 1
    Format                      : AVC
    Format/Info                 : Advanced Video Codec
    Format profile              : High@L4.1
    Format settings             : CABAC / 4 Ref Frames
    Format settings, CABAC      : Yes
    Format settings, ReFrames   : 4 frames
    Codec ID                    : V_MPEG4/ISO/AVC
    Duration                    : 1 h 46 min
    Bit rate                    : 16.5 Mb/s
    Width                       : 1 920 pixels
    Height                      : 1 080 pixels
    Display aspect ratio        : 16:9
    Frame rate mode             : Constant
    Frame rate                  : 23.976 (24000/1001) FPS
    Color space                 : YUV
    Chroma subsampling          : 4:2:0
    Bit depth                   : 8 bits
    Scan type                   : Progressive
    Bits/(Pixel*Frame)          : 0.331
    Stream size                 : 12.3 GiB (90%)
    Title                       : Full HD1080p [Bluray]
    Writing library             : x264 core 157 r2935 545de2f
    Encoding settings           : cabac=1 / ref=4 / deblock=1:0:0 / analyse=0x3:0x133 / me=tesa / subme=11 / psy=1 / psy_rd=1.00:0.00 / mixed_ref=1 / me_range=24 / chroma_me=1 / trellis=2 / 8x8dct=1 / cqm=0 / deadzone=21,11 / fast_pskip=0 / chroma_qp_offset=-2 / threads=34 / lookahead_threads=8 / sliced_threads=0 / nr=0 / decimate=1 / interlaced=0 / bluray_compat=0 / constrained_intra=0 / bframes=16 / b_pyramid=2 / b_adapt=2 / b_bias=0 / direct=3 / weightb=1 / open_gop=0 / weightp=2 / keyint=240 / keyint_min=24 / scenecut=40 / intra_refresh=0 / rc_lookahead=60 / rc=crf / mbtree=1 / crf=20.0 / qcomp=0.60 / qpmin=0 / qpmax=69 / qpstep=4 / vbv_maxrate=62500 / vbv_bufsize=78125 / crf_max=0.0 / nal_hrd=none / filler=0 / ip_ratio=1.40 / aq=1:1.00
    Default                     : Yes
    Forced                      : Yes
    Color range                 : Limited
    Color primaries             : BT.709
    Transfer characteristics    : BT.709
    Matrix coefficients         : BT.709

    Audio #1
    ID                          : 2
    Format                      : AC-3
    Format/Info                 : Audio Coding 3
    Commercial name             : Dolby Digital
    Codec ID                    : A_AC3
    Duration                    : 1 h 46 min
    Bit rate mode               : Constant
    Bit rate                    : 384 kb/s
    Channel(s)                  : 6 channels
    Channel layout              : L R C LFE Ls Rs
    Sampling rate               : 48.0 kHz
    Frame rate                  : 31.250 FPS (1536 SPF)
    Bit depth                   : 16 bits
    Compression mode            : Lossy
    Delay relative to video     : 14 ms
    Stream size                 : 294 MiB (2%)
    Title                       : AC3_5.1_DVD_Esp
    Language                    : Spanish
    Service kind                : Complete Main
    Default                     : Yes
    Forced                      : Yes

    Audio #2
    ID                          : 3
    Format                      : DTS
    Format/Info                 : Digital Theater Systems
    Codec ID                    : A_DTS
    Duration                    : 1 h 46 min
    Bit rate mode               : Constant
    Bit rate                    : 1 509 kb/s
    Channel(s)                  : 6 channels
    Channel layout              : C L R Ls Rs LFE
    Sampling rate               : 48.0 kHz
    Frame rate                  : 93.750 FPS (512 SPF)
    Bit depth                   : 24 bits
    Compression mode            : Lossy
    Stream size                 : 1.13 GiB (8%)
    Title                       : DTS_5.1_Bluray_Eng
    Language                    : English
    Default                     : No
    Forced                      : No

    Text #1
    ID                          : 4
    Format                      : PGS
    Muxing mode                 : zlib
    Codec ID                    : S_HDMV/PGS
    Codec ID/Info               : Picture based subtitle format used on BDs/HD-DVDs
    Duration                    : 1 h 42 min
    Bit rate                    : 37.8 kb/s
    Count of elements           : 2654
    Stream size                 : 27.8 MiB (0%)
    Title                       : Sub_Esp [PGS]
    Language                    : Spanish
    Default                     : No
    Forced                      : No

    Text #2
    ID                          : 5
    Format                      : PGS
    Muxing mode                 : zlib
    Codec ID                    : S_HDMV/PGS
    Codec ID/Info               : Picture based subtitle format used on BDs/HD-DVDs
    Duration                    : 1 h 43 min
    Bit rate                    : 50.7 kb/s
    Count of elements           : 3346
    Stream size                 : 37.7 MiB (0%)
    Title                       : Sub_Eng [PGS]
    Language                    : English
    Default                     : No
    Forced                      : No

    Text #3
    ID                          : 6
    Format                      : UTF-8
    Codec ID                    : S_TEXT/UTF8
    Codec ID/Info               : UTF-8 Plain Text
    Duration                    : 1 h 42 min
    Bit rate                    : 62 b/s
    Count of elements           : 1461
    Stream size                 : 47.5 KiB (0%)
    Title                       : Sub_Esp
    Language                    : Spanish
    Default                     : No
    Forced                      : No

    Menu
    00:00:00.000                : :Happy Graduation
    00:05:05.305                : :You Look Like a Games Guy
    00:11:01.661                : :"Modern Love" - David Bowie
    00:13:48.328                : :"Rock Me Amadeus" - Falco
    00:17:08.569                : :"Don't Want to Know If You Are Lonely" - Hsker D
    00:20:42.658                : :Em's Party
    00:23:48.093                : :"Looking for a Kiss" - New York Dolls
    00:26:14.573                : :"I'm in Love with a Girl" - Big Star
    00:29:18.006                : :Lisa P Is Back
    00:29:56.795                : :"Rock Me Amadeus" - Falco
    00:33:39.518                : :"Pale Blue Eyes" - The Velvet Underground
    00:35:50.565                : :"Rock Me Amadeus" - Falco
    00:38:28.306                : :"Don't Dream It's Over" - Crowded House
    00:41:45.503                : :"Satellite of Love" - Lou Reed
    00:45:24.722                : :Taking Things Slow
    00:46:55.104                : :Meeting Needs
    00:48:38.457                : :"Your Love" - Outfield
    00:49:15.536                : :Sailboats and Speedboats
    00:50:09.882                : :"Just Like Heavan" - The Cure
    00:56:16.123                : :Em-Appreciation
    01:05:15.954                : :The Secret's Out
    01:07:30.088                : :"Rock Me Amadeus" - Falco
    01:13:31.157                : :Mostly You Just Make Me Mad
    01:20:42.838                : :The Last Weekend
    01:22:18.934                : :"Unsatisfied" - The Replacements
    01:24:25.477                : :"Don't Change" - Inxs
    01:32:33.548                : :"Adventureland Theme Song" - Brian Kenney & Ian Berkowitz
    01:39:52.987                : :The Path of the Virus
    01:43:33.249                : :Mentally Divergent
    01:43:59.525                : :Seriously Crazy

  • Peso: 13.7 GiB

Sinopsis

Descargar Adventureland (2009) Full HD 1080p Latino. Corre el verano de 1987 y aunque James Brennan (Jesse Eisenberg), un joven recién graduado en el instituto, sueña con hacer un viaje por Europa, la falta de recursos le obliga a aceptar un empleo precario en un parque de atracciones local. Así, James consigue el peor trabajo que nunca imaginó… pero puede que también pase la mejor época de su vida.

Ficha técnica

Video trailer de la película

Enlaces de descarga

Rip de Bluray

Descargar Adventureland (2009) Full HD 1080p Latino




Aportes de DPeliculasHDmega la pass es:dpeliculashdmega.org Aportes de CinemaniaHD la pass es:cinemaniahdd.com

Películas relacionadas

Comentarios 0