×

¿Problemas para descargar con Mozilla, EDGE? Deshabilita la opción "Abrir vinculos en una pestaña nueva" tal como lo muestra ésta imagen.

Adventureland (2009) Full HD 1080p Latino

1.886 vistas

Información de Adventureland (2009) Full HD 1080p Latino

Datos de la película

  • Calidad: Full 1080p
  • Audio: Se especifica abajo de la Sinopsis
  • Subtitulos: Español PGS - Ingles PGS
  • Resolución: 1920x1080p
  • Formato: MKV
  • Codec: H.264
  • Encoder: CinefiloCool
  • Mediainfo: Clic para Mostrar Datos Ver
  • Adventureland (2009) Full HD 1080p Latino-CMHDD.mkv
    Format                      : Matroska
    Format version              : Version 4
    File size                   : 12.3 GiB
    Duration                    : 1 h 46 min
    Overall bit rate            : 16.5 Mb/s
    Movie name                  : Adventureland (2009) CinemaniaHDD.Net
    Encoded date                : UTC 2023-03-01 05:36:27
    Writing application         : mkvmerge v56.1.0 ('My Friend') 64-bit
    Writing library             : libebml v1.4.2 + libmatroska v1.6.4
    Attachments                 : CINEMANIAHD.png

    Video
    ID                          : 1
    Format                      : AVC
    Format/Info                 : Advanced Video Codec
    Format profile              : High@L4.1
    Format settings             : CABAC / 4 Ref Frames
    Format settings, CABAC      : Yes
    Format settings, Reference  : 4 frames
    Codec ID                    : V_MPEG4/ISO/AVC
    Duration                    : 1 h 46 min
    Bit rate                    : 13.7 Mb/s
    Width                       : 1 920 pixels
    Height                      : 1 080 pixels
    Display aspect ratio        : 16:9
    Frame rate mode             : Constant
    Frame rate                  : 23.976 (24000/1001) FPS
    Color space                 : YUV
    Chroma subsampling          : 4:2:0
    Bit depth                   : 8 bits
    Scan type                   : Progressive
    Bits/(Pixel*Frame)          : 0.275
    Stream size                 : 10.2 GiB (83%)
    Title                       : Full HD1080p [CinemaniaHDD]
    Writing library             : x264 core 163 r3059 b684ebe0
    Encoding settings           : cabac=1 / ref=4 / deblock=1:-1:-1 / analyse=0x3:0x133 / me=esa / subme=10 / psy=1 / psy_rd=1.00:0.15 / mixed_ref=1 / me_range=24 / chroma_me=1 / trellis=2 / 8x8dct=1 / cqm=0 / deadzone=21,11 / fast_pskip=1 / chroma_qp_offset=-3 / threads=24 / lookahead_threads=4 / sliced_threads=0 / nr=0 / decimate=1 / interlaced=0 / bluray_compat=0 / constrained_intra=0 / bframes=8 / b_pyramid=2 / b_adapt=2 / b_bias=0 / direct=3 / weightb=1 / open_gop=0 / weightp=2 / keyint=240 / keyint_min=24 / scenecut=40 / intra_refresh=0 / rc_lookahead=60 / rc=crf / mbtree=1 / crf=21.0 / qcomp=0.60 / qpmin=0 / qpmax=69 / qpstep=4 / vbv_maxrate=62500 / vbv_bufsize=78125 / crf_max=0.0 / nal_hrd=none / filler=0 / ip_ratio=1.40 / aq=1:1.00
    Default                     : Yes
    Forced                      : Yes
    Color range                 : Limited
    Color primaries             : BT.709
    Transfer characteristics    : BT.709
    Matrix coefficients         : BT.709

    Audio #1
    ID                          : 2
    Format                      : AC-3
    Format/Info                 : Audio Coding 3
    Commercial name             : Dolby Digital
    Codec ID                    : A_AC3
    Duration                    : 1 h 46 min
    Bit rate mode               : Constant
    Bit rate                    : 640 kb/s
    Channel(s)                  : 6 channels
    Channel layout              : L R C LFE Ls Rs
    Sampling rate               : 48.0 kHz
    Frame rate                  : 31.250 FPS (1536 SPF)
    Compression mode            : Lossy
    Stream size                 : 489 MiB (4%)
    Title                       : Español Latino AC3 [CinemaniaHDD]
    Language                    : Spanish
    Service kind                : Complete Main
    Default                     : Yes
    Forced                      : Yes

    Audio #2
    ID                          : 3
    Format                      : E-AC-3
    Format/Info                 : Enhanced AC-3
    Commercial name             : Dolby Digital Plus
    Codec ID                    : A_EAC3
    Duration                    : 1 h 46 min
    Bit rate mode               : Constant
    Bit rate                    : 640 kb/s
    Channel(s)                  : 6 channels
    Channel layout              : L R C LFE Ls Rs
    Sampling rate               : 48.0 kHz
    Frame rate                  : 31.250 FPS (1536 SPF)
    Compression mode            : Lossy
    Delay relative to video     : 940 ms
    Stream size                 : 489 MiB (4%)
    Title                       : Español Latino EAC3 [CinemaniaHDD]
    Language                    : Spanish
    Service kind                : Complete Main
    Default                     : No
    Forced                      : No

    Audio #3
    ID                          : 4
    Format                      : DTS
    Format/Info                 : Digital Theater Systems
    Codec ID                    : A_DTS
    Duration                    : 1 h 46 min
    Bit rate mode               : Constant
    Bit rate                    : 1 509 kb/s
    Channel(s)                  : 6 channels
    Channel layout              : C L R Ls Rs LFE
    Sampling rate               : 48.0 kHz
    Frame rate                  : 93.750 FPS (512 SPF)
    Bit depth                   : 24 bits
    Compression mode            : Lossy
    Stream size                 : 1.13 GiB (9%)
    Title                       : Ingles [CinemaniaHDD]
    Language                    : English
    Default                     : No
    Forced                      : No

    Text #1
    ID                          : 5
    Format                      : PGS
    Muxing mode                 : zlib
    Codec ID                    : S_HDMV/PGS
    Codec ID/Info               : Picture based subtitle format used on BDs/HD-DVDs
    Duration                    : 1 h 42 min
    Bit rate                    : 37.8 kb/s
    Count of elements           : 2654
    Stream size                 : 27.8 MiB (0%)
    Title                       : Español-PGS [CinemaniaHDD]
    Language                    : Spanish
    Default                     : No
    Forced                      : No

    Text #2
    ID                          : 6
    Format                      : PGS
    Muxing mode                 : zlib
    Codec ID                    : S_HDMV/PGS
    Codec ID/Info               : Picture based subtitle format used on BDs/HD-DVDs
    Duration                    : 1 h 42 min
    Bit rate                    : 42.5 kb/s
    Count of elements           : 2638
    Stream size                 : 31.3 MiB (0%)
    Title                       : Ingles-PGS [CinemaniaHDD]
    Language                    : English
    Default                     : No
    Forced                      : No

    Text #3
    ID                          : 7
    Format                      : UTF-8
    Codec ID                    : S_TEXT/UTF8
    Codec ID/Info               : UTF-8 Plain Text
    Duration                    : 1 h 30 min
    Bit rate                    : 1 b/s
    Count of elements           : 28
    Stream size                 : 699 Bytes (0%)
    Title                       : Forzados-SRT [CinemaniaHDD]
    Language                    : Spanish
    Default                     : Yes
    Forced                      : Yes

    Text #4
    ID                          : 8
    Format                      : UTF-8
    Codec ID                    : S_TEXT/UTF8
    Codec ID/Info               : UTF-8 Plain Text
    Duration                    : 1 h 42 min
    Bit rate                    : 59 b/s
    Count of elements           : 1322
    Stream size                 : 44.8 KiB (0%)
    Title                       : Español-SRT [CinemaniaHDD]
    Language                    : Spanish
    Default                     : No
    Forced                      : No

    Menu
    00:00:00.000                : Happy Graduation
    00:05:05.305                : You Look Like a Games Guy
    00:11:01.661                : "Modern Love" - David Bowie
    00:13:48.327                : "Rock Me Amadeus" - Falco
    00:17:08.569                : "Don't Want to Know If You Are Lonely" - Hsker D
    00:20:42.658                : Em's Party
    00:23:48.093                : "Looking for a Kiss" - New York Dolls
    00:26:14.573                : "I'm in Love with a Girl" - Big Star
    00:29:18.006                : Lisa P Is Back
    00:29:56.795                : "Rock Me Amadeus" - Falco
    00:33:39.517                : "Pale Blue Eyes" - The Velvet Underground
    00:35:50.565                : "Rock Me Amadeus" - Falco
    00:38:28.306                : "Don't Dream It's Over" - Crowded House
    00:41:45.503                : "Satellite of Love" - Lou Reed
    00:45:24.722                : Taking Things Slow
    00:46:55.104                : Meeting Needs
    00:48:38.457                : "Your Love" - Outfield
    00:49:15.536                : Sailboats and Speedboats
    00:50:09.882                : "Just Like Heavan" - The Cure
    00:56:16.123                : Em-Appreciation
    01:05:15.954                : The Secret's Out
    01:07:29.963                : "Rock Me Amadeus" - Falco
    01:13:31.032                : Mostly You Just Make Me Mad
    01:20:42.838                : The Last Weekend
    01:22:18.934                : "Unsatisfied" - The Replacements
    01:24:25.477                : "Don't Change" - Inxs
    01:32:33.548                : "Adventureland Theme Song" - Brian Kenney & Ian Berkowitz
    01:39:52.987                : The Path of the Virus
    01:43:33.249                : Mentally Divergent
    01:43:59.525                : Seriously Crazy

  • Peso: 12.3 GiB

Sinopsis

Descargar Adventureland (2009) Full HD 1080p Latino. Corre el verano de 1987 y aunque James Brennan (Jesse Eisenberg), un joven recién graduado en el instituto, sueña con hacer un viaje por Europa, la falta de recursos le obliga a aceptar un empleo precario en un parque de atracciones local. Así, James consigue el peor trabajo que nunca imaginó… pero puede que también pase la mejor época de su vida.

Audio Español Latino EAC3 5.1 + AC3 5.1 Amazon – Ingles DTS 5.1 Bluray
RESUBIDO!!!

Ficha técnica

Video trailer de la película

Enlaces de descarga

Rip de Bluray

Descargar Adventureland (2009) Full HD 1080p Latino




Aportes de DPeliculasHDmega la pass es:dpeliculashdmega.org Aportes de CinemaniaHD la pass es:cinemaniahdd.com

Películas relacionadas

  • Amor a segunda vista (2002) 1080p Latino

    Amor a segunda vista (2002) 1080p Latino

    2002
    Amor a segunda vista (2002) 1080p Latino

    1h 41m 2002

    Descargar Amor a segunda vista (2002) 1080p Latino. El millonario George Wade no es capaz de hacer nada...

    Director: Marc Lawrence

    Género: Comedia

    Actores: Wynter Kullman

  • Amor a segunda vista (2002) Full HD 1080p Latino

    Amor a segunda vista (2002) Full HD 1080p Latino

    2002
    Amor a segunda vista (2002) Full HD 1080p Latino

    1h 41m 2002

    Descargar Amor a segunda vista (2002) Full HD 1080p Latino. El millonario George Wade no es capaz de...

    Director: Marc Lawrence

    Género: Comedia

    Actores: Wynter Kullman

  • Amor a segunda vista (2002) REMUX 1080p Latino

    Amor a segunda vista (2002) REMUX 1080p Latino

    2002
    Amor a segunda vista (2002) REMUX 1080p Latino

    1h 41m 2002

    Descargar Amor a segunda vista (2002) REMUX 1080p Latino. El millonario George Wade no es capaz de hacer...

    Director: Marc Lawrence

    Género: Comedia

    Actores: Wynter Kullman

  • Jackie (2016) Full HD 1080p Latino

    Jackie (2016) Full HD 1080p Latino

    2016
    Jackie (2016) Full HD 1080p Latino

    1h 35m 2016

    Descargar Jackie (2016) REMUX 1080p Latino. Película sobre la exprimera dama estadounidense Jacqueline...

    Director: Pablo Larraín

    Género: Actualizadas

    Actores: Yann Bean

descargar Adventureland (2009) Full HD 1080p Latino Full 1080p 1080p gratis, Adventureland (2009) Full HD 1080p Latino Full 1080p mega 1 link, Adventureland (2009) Full HD 1080p Latino Full 1080p pelicula completa, descargar Adventureland (2009) Full HD 1080p Latino Full 1080p gratis en mega.

Adventureland (2009) Full HD 1080p Latino pelicula full hd, Adventureland (2009) Full HD 1080p Latino mega latino, Adventureland (2009) Full HD 1080p Latino 4k latino, Adventureland (2009) Full HD 1080p Latino pelicula completa, Adventureland (2009) Full HD 1080p Latino descargar gratis, descargar Adventureland (2009) Full HD 1080p Latino pelicula latino, Adventureland (2009) Full HD 1080p Latino 1 link mega, Adventureland (2009) Full HD 1080p Latino 1 link google drive, Adventureland (2009) Full HD 1080p Latino hd 1080p latino.
Comentarios 0