Addams Family Values (1993) REMUX 1080p Latino – CMHDD

78 vistas
1 estrella2 estrellas3 estrellas4 estrellas5 estrellas (1 votos, promedio: 5,00 de 5)
Cargando...

Información de Addams Family Values (1993) REMUX 1080p Latino – CMHDD

Datos de la película

  • Calidad: Full 1080p
  • Audio: Español Latino AC3 2.0 BLURAY - Ingles DTS 5.1 BLURAY
  • Subtitulos: Español Latino SRT
  • Resolución: 1920x1080p
  • Formato: MKV
  • Codec: H.264
  • Encoder: Dracarys
  • Mediainfo: Clic para Mostrar Datos Ver
  • Format                      : Matroska
    Format version              : Version 4
    File size                   : 25.3 GiB
    Duration                    : 1 h 34 min
    Overall bit rate mode       : Variable
    Overall bit rate            : 38.4 Mb/s
    Movie name                  : The Addams Family (1991) REMUX 1080p Latino - CMHDD
    Encoded date                : UTC 2020-06-28 22:48:33
    Writing application         : mkvmerge v46.0.0 ('No Deeper Escape') 64-bit
    Writing library             : libebml v1.3.10 + libmatroska v1.5.2

    Video
    ID                          : 1
    Format                      : AVC
    Format/Info                 : Advanced Video Codec
    Format profile              : High@L4.1
    Format settings             : CABAC / 4 Ref Frames
    Format settings, CABAC      : Yes
    Format settings, Reference  : 4 frames
    Codec ID                    : V_MPEG4/ISO/AVC
    Duration                    : 1 h 34 min
    Bit rate mode               : Variable
    Bit rate                    : 33.8 Mb/s
    Maximum bit rate            : 36.0 Mb/s
    Width                       : 1 920 pixels
    Height                      : 1 080 pixels
    Display aspect ratio        : 16:9
    Frame rate mode             : Constant
    Frame rate                  : 23.976 (24000/1001) FPS
    Color space                 : YUV
    Chroma subsampling          : 4:2:0
    Bit depth                   : 8 bits
    Scan type                   : Progressive
    Bits/(Pixel*Frame)          : 0.680
    Stream size                 : 22.2 GiB (88%)
    Language                    : English
    Default                     : No
    Forced                      : No

    Audio #1
    ID                          : 2
    Format                      : AC-3
    Format/Info                 : Audio Coding 3
    Commercial name             : Dolby Digital
    Codec ID                    : A_AC3
    Duration                    : 1 h 34 min
    Bit rate mode               : Constant
    Bit rate                    : 224 kb/s
    Channel(s)                  : 2 channels
    Channel layout              : L R
    Sampling rate               : 48.0 kHz
    Frame rate                  : 31.250 FPS (1536 SPF)
    Compression mode            : Lossy
    Stream size                 : 151 MiB (1%)
    Language                    : Spanish
    Service kind                : Complete Main
    Default                     : Yes
    Forced                      : No

    Audio #2
    ID                          : 3
    Format                      : AC-3
    Format/Info                 : Audio Coding 3
    Commercial name             : Dolby Digital
    Codec ID                    : A_AC3
    Duration                    : 1 h 34 min
    Bit rate mode               : Constant
    Bit rate                    : 640 kb/s
    Channel(s)                  : 6 channels
    Channel layout              : L R C LFE Ls Rs
    Sampling rate               : 48.0 kHz
    Frame rate                  : 31.250 FPS (1536 SPF)
    Compression mode            : Lossy
    Stream size                 : 431 MiB (2%)
    Language                    : English
    Service kind                : Complete Main
    Default                     : No
    Forced                      : No

    Audio #3
    ID                          : 4
    Format                      : DTS XLL
    Format/Info                 : Digital Theater Systems
    Commercial name             : DTS-HD Master Audio
    Codec ID                    : A_DTS
    Duration                    : 1 h 34 min
    Bit rate mode               : Variable
    Bit rate                    : 3 773 kb/s
    Channel(s)                  : 6 channels
    Channel layout              : C L R Ls Rs LFE
    Sampling rate               : 48.0 kHz
    Frame rate                  : 93.750 FPS (512 SPF)
    Bit depth                   : 24 bits
    Compression mode            : Lossless
    Stream size                 : 2.48 GiB (10%)
    Language                    : English
    Default                     : No
    Forced                      : No

    Text #1
    ID                          : 5
    Format                      : PGS
    Muxing mode                 : zlib
    Codec ID                    : S_HDMV/PGS
    Codec ID/Info               : Picture based subtitle format used on BDs/HD-DVDs
    Duration                    : 1 h 27 min
    Bit rate                    : 31.0 kb/s
    Count of elements           : 1872
    Stream size                 : 19.3 MiB (0%)
    Language                    : Spanish
    Default                     : No
    Forced                      : No

    Text #2
    ID                          : 6
    Format                      : UTF-8
    Codec ID                    : S_TEXT/UTF8
    Codec ID/Info               : UTF-8 Plain Text
    Duration                    : 1 h 27 min
    Bit rate                    : 51 b/s
    Count of elements           : 936
    Stream size                 : 32.6 KiB (0%)
    Language                    : Spanish
    Default                     : No
    Forced                      : No

    Menu
    00:00:00.000                : en:Chapter 01
    00:04:54.085                : en:Chapter 02
    00:10:20.411                : en:Chapter 03
    00:15:55.955                : en:Chapter 04
    00:20:20.552                : en:Chapter 05
    00:25:26.691                : en:Chapter 06
    00:38:26.304                : en:Chapter 07
    00:41:46.128                : en:Chapter 08
    00:44:27.247                : en:Chapter 09
    00:54:10.497                : en:Chapter 10
    00:58:03.062                : en:Chapter 11
    01:03:46.948                : en:Chapter 12
    01:15:05.459                : en:Chapter 13
    01:19:09.870                : en:Chapter 14
    01:24:37.155                : en:Chapter 15
    01:28:03.861                : en:Chapter 16

  • Peso: 25.3 GiB

Sinopsis

Fue amor al primer susto cuando Gomez y Morticia acogieron a un nuevo miembro en el grupo familiar -Pubert, su delicado, blandito y bigotudo niño. Fue entonces cuando Fétido se enamoró de la voluptuosa niñera. Pero tras algunas investigaciones, Miércoles y Pugsley descubren que la inocente niñera es en realidad una viuda negra asesina que planea añadir a Fétido a su colección de maridos muertos.

 

 

Cambiar el nombre al MKV – (Addams Family Values (1993) REMUX 1080p Latino – CMHDD)

Ficha técnica

  • Titulo original: Addams Family Values
  • Fecha de lanzamiento: 19-11-1993 (United States of America)
  • Director: Barry Sonnenfeld
  • Género: Comedia, Familia, Fantasía
  • Puntuación: 5.0 1 votos
  • Duración:
    1h 35m

Video trailer de la película

Enlaces de descarga

Rip de Bluray

Descargar Addams Family Values (1993) REMUX 1080p Latino – CMHDD




Aportes de DPeliculasHDmega la pass es:dpeliculashdmega.org Aportes de CinemaniaHD la pass es:cinemaniahdd.com
Guardado en : Comedia , Familia , Fantasía

Películas relacionadas

Comentarios 2
  • Kh - 08 julio, 2020

    esta es la segunda??