Ad Astra: Hacia las estrellas (2019) WEB-DL 1080p Latino

2.492 vistas
1 estrella2 estrellas3 estrellas4 estrellas5 estrellas (1 votos, promedio: 5,00 de 5)
Cargando...

Información de Ad Astra: Hacia las estrellas (2019) WEB-DL 1080p Latino

Datos de la película

  • Calidad: WEBDL
  • Audio: Español Latino AC3 2.0 iTunes - Ingles AC3 5.1 iTunes
  • Subtitulos: Español Latino SRT- FORZADOS SRT
  • Resolución: 1920x1080
  • Formato: MKV
  • Codec: H.264
  • Encoder: cinemaniahdd
  • Mediainfo: Clic para Mostrar Datos Ver
  • Ad Astra, Hacia las estrellas (2019) WEB-DL 1080p Latino.mkv
    Format                      : Matroska
    Format version              : Version 4
    File size                   : 4.54 GiB
    Duration                    : 2 h 3 min
    Overall bit rate            : 5 258 kb/s
    Movie name                  : Ad Astra, Hacia las estrellas (2019) - CinemaniaHDD.Net
    Encoded date                : UTC 2019-12-03 18:17:54
    Writing application         : mkvmerge v38.0.0 ('The Silent Type') 64-bit
    Writing library             : libebml v1.3.9 + libmatroska v1.5.2

    Video
    ID                          : 1
    Format                      : AVC
    Format/Info                 : Advanced Video Codec
    Format profile              : High@L4
    Format settings             : CABAC / 5 Ref Frames
    Format settings, CABAC      : Yes
    Format settings, ReFrames   : 5 frames
    Codec ID                    : V_MPEG4/ISO/AVC
    Duration                    : 2 h 3 min
    Bit rate                    : 4 619 kb/s
    Width                       : 1 920 pixels
    Height                      : 804 pixels
    Display aspect ratio        : 2.40:1
    Frame rate mode             : Constant
    Frame rate                  : 23.976 FPS
    Color space                 : YUV
    Chroma subsampling          : 4:2:0
    Bit depth                   : 8 bits
    Scan type                   : Progressive
    Bits/(Pixel*Frame)          : 0.125
    Stream size                 : 3.99 GiB (88%)
    Title                       : CinemaniaHDD
    Language                    : English
    Default                     : Yes
    Forced                      : No
    Color range                 : Limited
    Color primaries             : BT.709
    Transfer characteristics    : BT.709
    Matrix coefficients         : BT.709

    Audio #1
    ID                          : 2
    Format                      : AC-3
    Format/Info                 : Audio Coding 3
    Commercial name             : Dolby Digital
    Codec ID                    : A_AC3
    Duration                    : 2 h 3 min
    Bit rate mode               : Constant
    Bit rate                    : 256 kb/s
    Channel(s)                  : 2 channels
    Channel layout              : L R
    Sampling rate               : 48.0 kHz
    Frame rate                  : 31.250 FPS (1536 SPF)
    Bit depth                   : 16 bits
    Compression mode            : Lossy
    Delay relative to video     : -43 ms
    Stream size                 : 225 MiB (5%)
    Title                       : Español latino [CinemaniaHDD]
    Language                    : Spanish
    Service kind                : Complete Main
    Default                     : Yes
    Forced                      : No

    Audio #2
    ID                          : 3
    Format                      : AC-3
    Format/Info                 : Audio Coding 3
    Commercial name             : Dolby Digital
    Codec ID                    : A_AC3
    Duration                    : 2 h 3 min
    Bit rate mode               : Constant
    Bit rate                    : 384 kb/s
    Channel(s)                  : 6 channels
    Channel layout              : L R C LFE Ls Rs
    Sampling rate               : 48.0 kHz
    Frame rate                  : 31.250 FPS (1536 SPF)
    Bit depth                   : 16 bits
    Compression mode            : Lossy
    Delay relative to video     : -43 ms
    Stream size                 : 338 MiB (7%)
    Title                       : Inglés [CinemaniaHDD]
    Language                    : English
    Service kind                : Complete Main
    Default                     : No
    Forced                      : No

    Text #1
    ID                          : 4
    Format                      : UTF-8
    Codec ID                    : S_TEXT/UTF8
    Codec ID/Info               : UTF-8 Plain Text
    Duration                    : 2 h 1 min
    Bit rate                    : 0 b/s
    Count of elements           : 19
    Stream size                 : 606 Bytes (0%)
    Title                       : Forzados [CinemaniaHDD]
    Language                    : Spanish
    Default                     : Yes
    Forced                      : No

    Text #2
    ID                          : 5
    Format                      : UTF-8
    Codec ID                    : S_TEXT/UTF8
    Codec ID/Info               : UTF-8 Plain Text
    Duration                    : 2 h 2 min
    Bit rate                    : 42 b/s
    Count of elements           : 1053
    Stream size                 : 38.3 KiB (0%)
    Title                       : Español latino [CinemaniaHDD]
    Language                    : Spanish
    Default                     : No
    Forced                      : No

    Menu
    00:00:00.000                : en:Chapter 01
    00:04:23.680                : en:Chapter 02
    00:08:49.696                : en:Chapter 03
    00:16:26.778                : en:Chapter 04
    00:22:34.811                : en:Chapter 05
    00:30:09.514                : en:Chapter 06
    00:35:09.272                : en:Chapter 07
    00:40:34.346                : en:Chapter 08
    00:44:46.389                : en:Chapter 09
    00:48:57.807                : en:Chapter 10
    00:53:52.810                : en:Chapter 11
    00:56:44.773                : en:Chapter 12
    01:01:32.894                : en:Chapter 13
    01:07:24.870                : en:Chapter 14
    01:12:13.407                : en:Chapter 15
    01:17:00.109                : en:Chapter 16
    01:21:36.176                : en:Chapter 17
    01:24:43.655                : en:Chapter 18
    01:31:17.548                : en:Chapter 19
    01:36:28.024                : en:Chapter 20
    01:41:00.588                : en:Chapter 21
    01:46:27.581                : en:Chapter 22
    01:50:01.043                : en:Chapter 23
    01:53:18.781                : en:Chapter 24

     

  • Peso: 4.54 GiB

Sinopsis

El astronauta Roy McBride (Brad Pitt) viaja a los límites exteriores del sistema solar para encontrar a su padre perdido y desentrañar un misterio que amenaza la supervivencia de nuestro planeta. Su viaje desvelará secretos que desafían la naturaleza de la existencia humana y nuestro lugar en el cosmos.

Ficha técnica

  • Titulo original: Ad Astra
  • Fecha de lanzamiento: 17-09-2019 (Brazil, China, United States of America)
  • Director: James Gray
  • Género: Ciencia ficción
  • Puntuación: 5.0 1 votos
  • Duración:
    2h 4m

Video trailer de la película

Enlaces de descarga

Rip de Bluray

Descargar Ad Astra: Hacia las estrellas (2019) WEB-DL 1080p Latino




Aportes de DPeliculasHDmega la pass es:dpeliculashdmega.org Aportes de CinemaniaHD la pass es:cinemaniahdd.com
Guardado en : Ciencia ficción

Películas relacionadas

  • Sound of My Voice (2011) REMUX 1080p Latino – CMHDD

    Sound of My Voice (2011) REMUX 1080p Latino – CMHDD

    2011
    Sound of My Voice (2011) REMUX 1080p Latino – CMHDD

    0.0 1h 25m 2011

    Peter y Lorna, una joven pareja, se infiltra en una secta en el valle de San Fernando y conocen a su...

    Director: Zal Batmanglij

    Género: Ciencia ficción

    Actores: Travis Johns

  • Muppets from Space (1999) REMUX 1080p Latino – CMHDD

    Muppets from Space (1999) REMUX 1080p Latino – CMHDD

    1999
    Muppets from Space (1999) REMUX 1080p Latino – CMHDD

    0.0 1h 27m 1999

    Con la ayuda de su amigo Rizzo, Gonzo busca a su verdadera familia y descubre que sus parientes son en...

    Director: Tim Hill

    Género: Ciencia ficción

    Actores: Steve Whitmire

  • Frequency (2000) REMUX 1080p Latino – CMHDD

    Frequency (2000) REMUX 1080p Latino – CMHDD

    2000
    Frequency (2000) REMUX 1080p Latino – CMHDD

    0.0 1h 58m 2000

    John (James Caviezel) vive obsesionado con la muerte de su padre, un bombero (Dennis Quaid), que pereció...

    Director: Samantha Armstrong

    Género: Ciencia ficción

    Actores: Stephen Joffe

  • Elektra (2005) REMUX 1080p Latino – CMHDD

    Elektra (2005) REMUX 1080p Latino – CMHDD

    2005
    Elektra (2005) REMUX 1080p Latino – CMHDD

    0.0 1h 37m 2005

    Elektra (Jennifer Garner), tras recuperarse de las mortales heridas sufridas en "Daredevil", se convierte...

    Director: Warren Hanna

    Género: Acción

    Actores: Will Yun Lee

Comentarios 2
  • Fernando - 03 diciembre, 2019

    Que es calidad web dl??

    • CinemaniaHDD - 03 diciembre, 2019

      Hola.
      eh pues claro en el titulo del post esta «WEB-DL» hasta con mayusculas xD