×

¿Problemas para descargar con Mozilla, EDGE? Deshabilita la opción "Abrir vinculos en una pestaña nueva" tal como lo muestra ésta imagen.

Ad Astra (2019) 1080p Latino

1.840 vistas

Información de Ad Astra (2019) 1080p Latino

Datos de la película

  • Calidad: 1080p
  • Audio: Español Latino AC3 5.1 BLURAY - Ingles AC3 5.1 BLURAY
  • Subtitulos: Español Latino SRT- FORZADOS SRT
  • Resolución: 1920x804
  • Formato: MKV
  • Codec: H.264
  • Encoder: cinemaniahdd
  • Mediainfo: Clic para Mostrar Datos Ver
  • Ad Astra (2019) 1080p Latino.mkv
    Format                      : Matroska
    Format version              : Version 4
    File size                   : 3.73 GiB
    Duration                    : 2 h 3 min
    Overall bit rate            : 4 342 kb/s
    Movie name                  : Ad Astra (2019) - CinemaniaHDD.Net
    Encoded date                : UTC 2019-12-06 02:43:18
    Writing application         : mkvmerge v38.0.0 ('The Silent Type') 64-bit
    Writing library             : libebml v1.3.9 + libmatroska v1.5.2

    Video
    ID                          : 1
    Format                      : AVC
    Format/Info                 : Advanced Video Codec
    Format profile              : Main@L4
    Format settings             : CABAC / 4 Ref Frames
    Format settings, CABAC      : Yes
    Format settings, ReFrames   : 4 frames
    Codec ID                    : V_MPEG4/ISO/AVC
    Duration                    : 2 h 3 min
    Bit rate                    : 3 500 kb/s
    Width                       : 1 920 pixels
    Height                      : 804 pixels
    Display aspect ratio        : 2.40:1
    Frame rate mode             : Constant
    Frame rate                  : 23.976 (24000/1001) FPS
    Color space                 : YUV
    Chroma subsampling          : 4:2:0
    Bit depth                   : 8 bits
    Scan type                   : Progressive
    Bits/(Pixel*Frame)          : 0.095
    Stream size                 : 2.96 GiB (79%)
    Title                       : CinemaniaHDD
    Writing library             : x264 core 157 r2935 545de2f
    Encoding settings           : cabac=1 / ref=3 / deblock=1:0:0 / analyse=0x1:0x111 / me=hex / subme=7 / psy=1 / psy_rd=1.00:0.00 / mixed_ref=1 / me_range=16 / chroma_me=1 / trellis=1 / 8x8dct=0 / cqm=0 / deadzone=21,11 / fast_pskip=1 / chroma_qp_offset=-2 / threads=25 / lookahead_threads=4 / sliced_threads=0 / nr=0 / decimate=1 / interlaced=0 / bluray_compat=0 / constrained_intra=0 / bframes=3 / b_pyramid=2 / b_adapt=1 / b_bias=0 / direct=1 / weightb=1 / open_gop=0 / weightp=2 / keyint=240 / keyint_min=24 / scenecut=40 / intra_refresh=0 / rc_lookahead=40 / rc=abr / mbtree=1 / bitrate=3500 / ratetol=1.0 / qcomp=0.60 / qpmin=0 / qpmax=69 / qpstep=4 / vbv_maxrate=20000 / vbv_bufsize=25000 / nal_hrd=none / filler=0 / ip_ratio=1.40 / aq=1:1.00
    Default                     : Yes
    Forced                      : No
    Color range                 : Limited
    Color primaries             : BT.709
    Transfer characteristics    : BT.709
    Matrix coefficients         : BT.709

    Audio #1
    ID                          : 2
    Format                      : AC-3
    Format/Info                 : Audio Coding 3
    Commercial name             : Dolby Digital
    Codec ID                    : A_AC3
    Duration                    : 2 h 3 min
    Bit rate mode               : Constant
    Bit rate                    : 448 kb/s
    Channel(s)                  : 6 channels
    Channel layout              : L R C LFE Ls Rs
    Sampling rate               : 48.0 kHz
    Frame rate                  : 31.250 FPS (1536 SPF)
    Bit depth                   : 16 bits
    Compression mode            : Lossy
    Delay relative to video     : -973 ms
    Stream size                 : 394 MiB (10%)
    Title                       : Español latino [CinemaniaHDD]
    Language                    : Spanish
    Service kind                : Complete Main
    Default                     : Yes
    Forced                      : No

    Audio #2
    ID                          : 3
    Format                      : AC-3
    Format/Info                 : Audio Coding 3
    Commercial name             : Dolby Digital
    Codec ID                    : A_AC3
    Duration                    : 2 h 3 min
    Bit rate mode               : Constant
    Bit rate                    : 448 kb/s
    Channel(s)                  : 6 channels
    Channel layout              : L R C LFE Ls Rs
    Sampling rate               : 48.0 kHz
    Frame rate                  : 31.250 FPS (1536 SPF)
    Bit depth                   : 16 bits
    Compression mode            : Lossy
    Delay relative to video     : -1 s 6 ms
    Stream size                 : 394 MiB (10%)
    Title                       : Inglés [CinemaniaHDD]
    Language                    : English
    Service kind                : Complete Main
    Default                     : No
    Forced                      : No

    Text #1
    ID                          : 4
    Format                      : UTF-8
    Codec ID                    : S_TEXT/UTF8
    Codec ID/Info               : UTF-8 Plain Text
    Duration                    : 2 h 2 min
    Bit rate                    : 0 b/s
    Count of elements           : 19
    Stream size                 : 574 Bytes (0%)
    Title                       : Forzados [CinemaniaHDD]
    Language                    : Spanish
    Default                     : Yes
    Forced                      : Yes

    Text #2
    ID                          : 5
    Format                      : UTF-8
    Codec ID                    : S_TEXT/UTF8
    Codec ID/Info               : UTF-8 Plain Text
    Duration                    : 2 h 2 min
    Bit rate                    : 38 b/s
    Count of elements           : 1052
    Stream size                 : 34.4 KiB (0%)
    Title                       : Español latino [CinemaniaHDD]
    Language                    : Spanish
    Default                     : No
    Forced                      : No

    Menu
    00:00:01.001                : :Chapter 1
    00:04:22.763                : :Chapter 2
    00:08:48.778                : :Chapter 3
    00:16:25.860                : :Chapter 4
    00:22:33.853                : :Chapter 5
    00:30:08.557                : :Chapter 6
    00:35:08.356                : :Chapter 7
    00:40:33.389                : :Chapter 8
    00:44:45.433                : :Chapter 9
    00:48:56.809                : :Chapter 10
    00:53:51.854                : :Chapter 11
    00:56:43.901                : :Chapter 12
    01:01:31.938                : :Chapter 13
    01:07:23.915                : :Chapter 14
    01:12:12.453                : :Chapter 15
    01:16:59.240                : :Chapter 16
    01:21:35.265                : :Chapter 17
    01:24:42.703                : :Chapter 18
    01:31:16.596                : :Chapter 19
    01:36:27.156                : :Chapter 20
    01:40:59.679                : :Chapter 21
    01:46:26.630                : :Chapter 22
    01:50:00.094                : :Chapter 23
    01:53:17.791                : :Chapter 24

     

  • Peso: 3.73 GiB

Sinopsis

El astronauta Roy McBride (Brad Pitt) viaja a los límites exteriores del sistema solar para encontrar a su padre perdido y desentrañar un misterio que amenaza la supervivencia de nuestro planeta. Su viaje desvelará secretos que desafían la naturaleza de la existencia humana y nuestro lugar en el cosmos.

Ficha técnica

Video trailer de la película

Enlaces de descarga

Rip de Bluray

Descargar Ad Astra (2019) 1080p Latino




Aportes de DPeliculasHDmega la pass es:dpeliculashdmega.org Aportes de CinemaniaHD la pass es:cinemaniahdd.com
Guardado en : Ciencia ficción , HD 1080p

Películas relacionadas

  • Tremors (1990) REMUX 4K HDR Latino – CMHDD

    Tremors (1990) REMUX 4K HDR Latino – CMHDD

    1990
    Tremors (1990) REMUX 4K HDR Latino – CMHDD

    1h 35m 1990

    En Perfección, un pequeño pueblo al borde del desierto de Nevada, algo parece suceder debajo de la...

    Director: Susan Bierbaum

    Género: Acción

    Actores: Victor Wong

  • Wire Room (2022) HD 1080p Latino

    Wire Room (2022) HD 1080p Latino

    2022
    Wire Room (2022) HD 1080p Latino

    1h 37m 2022

    Descargar Wire Room (2022) HD 1080p Latino. Mientras está de servicio en la sala de cables, un agente...

    Director: Matt Eskandari

    Género: Acción

    Actores: Texas Battle

descargar Ad Astra (2019) 1080p Latino 1080p 1080p gratis, Ad Astra (2019) 1080p Latino 1080p mega 1 link, Ad Astra (2019) 1080p Latino 1080p pelicula completa, descargar Ad Astra (2019) 1080p Latino 1080p gratis en mega.

Ad Astra (2019) 1080p Latino pelicula full hd, Ad Astra (2019) 1080p Latino mega latino, Ad Astra (2019) 1080p Latino 4k latino, Ad Astra (2019) 1080p Latino pelicula completa, Ad Astra (2019) 1080p Latino descargar gratis, descargar Ad Astra (2019) 1080p Latino pelicula latino, Ad Astra (2019) 1080p Latino 1 link mega, Ad Astra (2019) 1080p Latino 1 link google drive, Ad Astra (2019) 1080p Latino hd 1080p latino.
Comentarios 0