×

¿Problemas para descargar con Mozilla, EDGE? Deshabilita la opción "Abrir vinculos en una pestaña nueva" tal como lo muestra ésta imagen.

Actividad Paranormal Lazos Familiares (2021) PLACEBO Full HD 1080p Latino

57 vistas

Información de Actividad Paranormal Lazos Familiares (2021) PLACEBO Full HD 1080p Latino

Datos de la película

  • Calidad: Full 1080p
  • Audio: Español Latino AC3 5.1 BLURAY - Ingles DTS 5.1 BLURAY
  • Subtitulos: Español Latino PGS - Ingles PGS
  • Resolución: 1920x1080p
  • Formato: MKV
  • Codec: H.264
  • Encoder: Melkor
  • Mediainfo: Clic para Mostrar Datos Ver
  • Actividad Paranormal Lazos Familiares (2021) PLACEBO 1080p Latino.mkv
    Format                      : Matroska
    Format version              : Version 4
    File size                   : 5.92 GiB
    Duration                    : 1 h 38 min
    Overall bit rate            : 8 631 kb/s
    Movie name                  : Paranormal Activity. Next of Kin (2021) CinemaniaHDD.Net
    Encoded date                : UTC 2022-10-15 05:00:35
    Writing application         : mkvmerge v56.1.0 ('My Friend') 64-bit
    Writing library             : libebml v1.4.2 + libmatroska v1.6.4
    Attachments                 : CINEMANIAHD.png

    Video
    ID                          : 1
    Format                      : AVC
    Format/Info                 : Advanced Video Codec
    Format profile              : High@L4.1
    Format settings             : CABAC / 4 Ref Frames
    Format settings, CABAC      : Yes
    Format settings, Reference  : 4 frames
    Codec ID                    : V_MPEG4/ISO/AVC
    Duration                    : 1 h 38 min
    Bit rate                    : 6 449 kb/s
    Width                       : 1 920 pixels
    Height                      : 1 080 pixels
    Display aspect ratio        : 16:9
    Frame rate mode             : Constant
    Frame rate                  : 23.976 (24000/1001) FPS
    Color space                 : YUV
    Chroma subsampling          : 4:2:0
    Bit depth                   : 8 bits
    Scan type                   : Progressive
    Bits/(Pixel*Frame)          : 0.130
    Stream size                 : 4.43 GiB (75%)
    Title                       : Full HD1080p [CinemaniaHDD]
    Writing library             : x264 core 163 r3059 b684ebe0
    Encoding settings           : cabac=1 / ref=4 / deblock=1:0:0 / analyse=0x3:0x133 / me=tesa / subme=11 / psy=1 / psy_rd=1.00:0.00 / mixed_ref=1 / me_range=24 / chroma_me=1 / trellis=2 / 8x8dct=1 / cqm=0 / deadzone=21,11 / fast_pskip=0 / chroma_qp_offset=-2 / threads=24 / lookahead_threads=6 / sliced_threads=0 / nr=0 / decimate=1 / interlaced=0 / bluray_compat=0 / constrained_intra=0 / bframes=16 / b_pyramid=2 / b_adapt=2 / b_bias=0 / direct=3 / weightb=1 / open_gop=0 / weightp=2 / keyint=240 / keyint_min=24 / scenecut=40 / intra_refresh=0 / rc_lookahead=60 / rc=crf / mbtree=1 / crf=19.0 / qcomp=0.60 / qpmin=0 / qpmax=69 / qpstep=4 / vbv_maxrate=62500 / vbv_bufsize=78125 / crf_max=0.0 / nal_hrd=none / filler=0 / ip_ratio=1.40 / aq=1:1.00
    Default                     : Yes
    Forced                      : Yes
    Color range                 : Limited
    Color primaries             : BT.709
    Transfer characteristics    : BT.709
    Matrix coefficients         : BT.709

    Audio #1
    ID                          : 2
    ID in the original source m : 4356 (0x1104)
    Format                      : AC-3
    Format/Info                 : Audio Coding 3
    Commercial name             : Dolby Digital
    Codec ID                    : A_AC3
    Duration                    : 1 h 38 min
    Bit rate mode               : Constant
    Bit rate                    : 640 kb/s
    Channel(s)                  : 6 channels
    Channel layout              : L R C LFE Ls Rs
    Sampling rate               : 48.0 kHz
    Frame rate                  : 31.250 FPS (1536 SPF)
    Compression mode            : Lossy
    Stream size                 : 450 MiB (7%)
    Title                       : Español Latino [CinemaniaHDD]
    Language                    : Spanish
    Service kind                : Complete Main
    Default                     : Yes
    Forced                      : Yes
    Original source medium      : Blu-ray

    Audio #2
    ID                          : 3
    Format                      : DTS
    Format/Info                 : Digital Theater Systems
    Codec ID                    : A_DTS
    Duration                    : 1 h 38 min
    Bit rate mode               : Constant
    Bit rate                    : 1 509 kb/s
    Channel(s)                  : 6 channels
    Channel layout              : C L R Ls Rs LFE
    Sampling rate               : 48.0 kHz
    Frame rate                  : 93.750 FPS (512 SPF)
    Bit depth                   : 24 bits
    Compression mode            : Lossy
    Stream size                 : 1.04 GiB (17%)
    Title                       : Ingles [CinemaniaHDD]
    Language                    : English
    Default                     : No
    Forced                      : No

    Text #1
    ID                          : 4
    ID in the original source m : 4624 (0x1210)
    Format                      : PGS
    Muxing mode                 : zlib
    Codec ID                    : S_HDMV/PGS
    Codec ID/Info               : Picture based subtitle format used on BDs/HD-DVDs
    Duration                    : 1 h 37 min
    Bit rate                    : 427 b/s
    Count of elements           : 32
    Stream size                 : 306 KiB (0%)
    Title                       : Forzados-PGS [CinemaniaHDD]
    Language                    : Spanish
    Default                     : No
    Forced                      : No
    Original source medium      : Blu-ray

    Text #2
    ID                          : 5
    ID in the original source m : 4613 (0x1205)
    Format                      : PGS
    Muxing mode                 : zlib
    Codec ID                    : S_HDMV/PGS
    Codec ID/Info               : Picture based subtitle format used on BDs/HD-DVDs
    Duration                    : 1 h 37 min
    Bit rate                    : 26.5 kb/s
    Count of elements           : 2182
    Stream size                 : 18.5 MiB (0%)
    Title                       : Español-PGS [CinemaniaHDD]
    Language                    : Spanish
    Default                     : No
    Forced                      : No
    Original source medium      : Blu-ray

    Text #3
    ID                          : 6
    ID in the original source m : 4608 (0x1200)
    Format                      : PGS
    Muxing mode                 : zlib
    Codec ID                    : S_HDMV/PGS
    Codec ID/Info               : Picture based subtitle format used on BDs/HD-DVDs
    Duration                    : 1 h 31 min
    Bit rate                    : 33.1 kb/s
    Count of elements           : 2238
    Stream size                 : 21.7 MiB (0%)
    Title                       : Ingles [CinemaniaHDD]
    Language                    : English
    Default                     : No
    Forced                      : No
    Original source medium      : Blu-ray

    Text #4
    ID                          : 7
    Format                      : UTF-8
    Codec ID                    : S_TEXT/UTF8
    Codec ID/Info               : UTF-8 Plain Text
    Duration                    : 1 h 33 min
    Bit rate                    : 0 b/s
    Count of elements           : 15
    Stream size                 : 377 Bytes (0%)
    Title                       : Forzados-SRT [CinemaniaHDD]
    Language                    : Spanish
    Default                     : Yes
    Forced                      : Yes

    Text #5
    ID                          : 8
    Format                      : UTF-8
    Codec ID                    : S_TEXT/UTF8
    Codec ID/Info               : UTF-8 Plain Text
    Duration                    : 1 h 33 min
    Bit rate                    : 41 b/s
    Count of elements           : 1103
    Stream size                 : 28.0 KiB (0%)
    Title                       : Español-SRT [CinemaniaHDD]
    Language                    : Spanish
    Default                     : No
    Forced                      : No

    Menu
    00:00:00.000                : Chapter 01
    00:05:04.595                : Chapter 02
    00:14:56.395                : Chapter 03
    00:25:27.609                : Chapter 04
    00:35:41.180                : Chapter 05
    00:44:28.248                : Chapter 06
    00:49:41.478                : Chapter 07
    01:01:06.829                : Chapter 08
    01:07:17.783                : Chapter 09
    01:15:35.948                : Chapter 10
    01:27:52.517                : Chapter 11
    01:33:24.974                : Chapter 12

  • Peso: 5.92 GiB

Sinopsis

Descargar Actividad Paranormal Lazos Familiares (2021) PLACEBO Full HD 1080p Latino. Un director de películas documentales sigue a Margot (Emily Bader) cuando se dirige hacia una aislada comunidad Amish con la esperanza de encontrarse con su madre y familiares lejanos y averiguar cómo están. Tras una sucesión de circunstancias y descubrimientos extraños, ella pronto comprende que la comunidad que les dio la bienvenida podría ocultar algo siniestro…

Ficha técnica

Video trailer de la película

Enlaces de descarga

Rip de Bluray

Descargar Actividad Paranormal Lazos Familiares (2021) PLACEBO Full HD 1080p Latino




Aportes de DPeliculasHDmega la pass es:dpeliculashdmega.org Aportes de CinemaniaHD la pass es:cinemaniahdd.com

Películas relacionadas

descargar Actividad Paranormal Lazos Familiares (2021) PLACEBO Full HD 1080p Latino Full 1080p 1080p gratis, Actividad Paranormal Lazos Familiares (2021) PLACEBO Full HD 1080p Latino Full 1080p mega 1 link, Actividad Paranormal Lazos Familiares (2021) PLACEBO Full HD 1080p Latino Full 1080p pelicula completa, descargar Actividad Paranormal Lazos Familiares (2021) PLACEBO Full HD 1080p Latino Full 1080p gratis en mega.

Actividad Paranormal Lazos Familiares (2021) PLACEBO Full HD 1080p Latino pelicula full hd, Actividad Paranormal Lazos Familiares (2021) PLACEBO Full HD 1080p Latino mega latino, Actividad Paranormal Lazos Familiares (2021) PLACEBO Full HD 1080p Latino 4k latino, Actividad Paranormal Lazos Familiares (2021) PLACEBO Full HD 1080p Latino pelicula completa, Actividad Paranormal Lazos Familiares (2021) PLACEBO Full HD 1080p Latino descargar gratis, descargar Actividad Paranormal Lazos Familiares (2021) PLACEBO Full HD 1080p Latino pelicula latino, Actividad Paranormal Lazos Familiares (2021) PLACEBO Full HD 1080p Latino 1 link mega, Actividad Paranormal Lazos Familiares (2021) PLACEBO Full HD 1080p Latino 1 link google drive, Actividad Paranormal Lazos Familiares (2021) PLACEBO Full HD 1080p Latino hd 1080p latino.
Comentarios 0