Action Point (2018) REMUX 1080p Latino

278 vistas
1 estrella2 estrellas3 estrellas4 estrellas5 estrellas (1 votos, promedio: 1,00 de 5)
Cargando...

Información de Action Point (2018) REMUX 1080p Latino

Datos de la película

  • Calidad: Full 1080p
  • Audio: Español Latino AC3 5.1 BLURAY - DTS-HD Master 7.1 BLURAY
  • Subtitulos: Español Latino SRT- FORZADOS SRT
  • Resolución: 1920x1080p
  • Formato: MKV
  • Codec: H.264
  • Encoder: Dracarys
  • Mediainfo: Clic para Mostrar Datos Ver
  • Format                      : Matroska
    Format version              : Version 4
    File size                   : 21.1 GiB
    Duration                    : 1 h 24 min
    Overall bit rate mode       : Variable
    Overall bit rate            : 35.8 Mb/s
    Movie name                  : CinemaniaHDD.net
    Encoded date                : UTC 2019-06-06 20:23:29
    Writing application         : mkvmerge v30.1.0 ('Forever And More') 64-bit
    Writing library             : libebml v1.3.6 + libmatroska v1.4.9

    Video
    ID                          : 1
    Format                      : AVC
    Format/Info                 : Advanced Video Codec
    Format profile              : High@L4.1
    Format settings             : CABAC / 4 Ref Frames
    Format settings, CABAC      : Yes
    Format settings, ReFrames   : 4 frames
    Codec ID                    : V_MPEG4/ISO/AVC
    Duration                    : 1 h 24 min
    Bit rate mode               : Variable
    Bit rate                    : 30.5 Mb/s
    Maximum bit rate            : 32.7 Mb/s
    Width                       : 1 920 pixels
    Height                      : 1 080 pixels
    Display aspect ratio        : 16:9
    Frame rate mode             : Constant
    Frame rate                  : 23.976 (24000/1001) FPS
    Color space                 : YUV
    Chroma subsampling          : 4:2:0
    Bit depth                   : 8 bits
    Scan type                   : Progressive
    Bits/(Pixel*Frame)          : 0.613
    Stream size                 : 18.0 GiB (85%)
    Language                    : English
    Default                     : Yes
    Forced                      : No

    Audio #1
    ID                          : 2
    Format                      : DTS XLL
    Format/Info                 : Digital Theater Systems
    Commercial name             : DTS-HD Master Audio
    Codec ID                    : A_DTS
    Duration                    : 1 h 24 min
    Bit rate mode               : Variable
    Bit rate                    : 4 599 kb/s
    Channel(s)                  : 8 channels
    Channel layout              : C L R LFE Lb Rb Lss Rss
    Sampling rate               : 48.0 kHz
    Frame rate                  : 93.750 FPS (512 SPF)
    Bit depth                   : 24 bits
    Compression mode            : Lossless
    Stream size                 : 2.72 GiB (13%)
    Language                    : English
    Default                     : No
    Forced                      : No

    Audio #2
    ID                          : 3
    Format                      : AC-3
    Format/Info                 : Audio Coding 3
    Commercial name             : Dolby Digital
    Codec ID                    : A_AC3
    Duration                    : 1 h 24 min
    Bit rate mode               : Constant
    Bit rate                    : 640 kb/s
    Channel(s)                  : 6 channels
    Channel layout              : L R C LFE Ls Rs
    Sampling rate               : 48.0 kHz
    Frame rate                  : 31.250 FPS (1536 SPF)
    Bit depth                   : 16 bits
    Compression mode            : Lossy
    Stream size                 : 387 MiB (2%)
    Language                    : Spanish
    Service kind                : Complete Main
    Default                     : Yes
    Forced                      : No

    Text #1
    ID                          : 4
    Format                      : PGS
    Muxing mode                 : zlib
    Codec ID                    : S_HDMV/PGS
    Codec ID/Info               : Picture based subtitle format used on BDs/HD-DVDs
    Duration                    : 1 h 23 min
    Bit rate                    : 39.5 kb/s
    Count of elements           : 2288
    Stream size                 : 23.7 MiB (0%)
    Language                    : Spanish
    Default                     : No
    Forced                      : No

    Text #2
    ID                          : 5
    Format                      : UTF-8
    Codec ID                    : S_TEXT/UTF8
    Codec ID/Info               : UTF-8 Plain Text
    Duration                    : 1 h 23 min
    Bit rate                    : 55 b/s
    Count of elements           : 1144
    Stream size                 : 33.8 KiB (0%)
    Language                    : Spanish
    Default                     : No
    Forced                      : No

    Text #3
    ID                          : 6
    Format                      : UTF-8
    Codec ID                    : S_TEXT/UTF8
    Codec ID/Info               : UTF-8 Plain Text
    Duration                    : 55 min 39 s
    Bit rate                    : 0 b/s
    Count of elements           : 5
    Stream size                 : 116 Bytes (0%)
    Title                       : Forzados
    Language                    : Spanish
    Default                     : Yes
    Forced                      : No

  • Peso: 21.1 GiB

Sinopsis

Un temerario doble de acción diseña y opera su propio parque temático con sus amigos.

Ficha técnica

  • Titulo original: Action Point
  • Fecha de lanzamiento: 01-06-2018 (South Africa, United States of America)
  • Director: Tim Kirkby
  • Género: Comedia, Drama, Remux
  • Puntuación: 1.0 1 votos
  • Duración:
    1h 25m

Video trailer de la película

Enlaces de descarga

Rip de Bluray

Descargar Action Point (2018) REMUX 1080p Latino




Aportes de DPeliculasHDmega la pass es:dpeliculashdmega.org Aportes de CinemaniaHD la pass es:cinemaniahdd.com
Guardado en : Comedia , Drama , Remux

Películas relacionadas

  • Rebecca (2020) NF WEB-DL 1080p Latino

    Rebecca (2020) NF WEB-DL 1080p Latino

    2020
    Rebecca (2020) NF WEB-DL 1080p Latino

    5.0 2h 1m 2020

    Maximilian De Winter pierde a su esposa Rebeca cuando ésta es dada por muerta después de desaparecer...

    Director: Ben Wheatley

    Género: Drama

    Actores: Tom Hudson

  • El cadáver (2020) NF WEB-DL 1080p Latino

    El cadáver (2020) NF WEB-DL 1080p Latino

    2020
    El cadáver (2020) NF WEB-DL 1080p Latino

    5.0 1h 26m 2020

    Película que nos sitúa en un peculiar Hotel, en un futuro post apocalíptico. En dicho establecimiento...

    Director: Taylor Maxwell

    Género: Drama

    Actores: Tuva Olivia Remman

  • Terror Bajo La Tierra 7 (2020) REMUX 1080p Latino

    Terror Bajo La Tierra 7 (2020) REMUX 1080p Latino

    2020
    Terror Bajo La Tierra 7 (2020) REMUX 1080p Latino

    5.0 1h 43m 2020

    Descargar Terror Bajo La Tierra 7 (2020) REMUX 1080p Latino. Los graboides son llevados ilegalmente a...

    Director: Don Michael Paul

    Género: Acción

    Actores: Sahajak Boonthanakit

Comentarios 0