Action Point (2018) Full 1080p Latino

1.009 vistas
1 estrella2 estrellas3 estrellas4 estrellas5 estrellas (2 votos, promedio: 5,00 de 5)
Cargando...

Información de Action Point (2018) Full 1080p Latino

Datos de la película

  • Calidad: Full 1080p
  • Audio: Español Latino AC3 5.1 BLURAY - Ingles DTS 5.1 BLURAY
  • Subtitulos: Español Latino PGS - Ingles PGS
  • Resolución: 1920x1080p
  • Formato: MKV
  • Codec: H.264
  • Encoder: Dracarys
  • Mediainfo: Clic para Mostrar Datos Ver
  • Format                                   : Matroska
    Format version                           : Version 4 / Version 2
    File size                                : 4.96 GiB
    Duration                                 : 1 h 24 min
    Overall bit rate                         : 8 387 kb/s
    Movie name                               : CinemaniaHDD.net
    Encoded date                             : UTC 2018-08-15 03:07:50 / UTC 2018-08-14T08:16:26Z
    Writing application                      : mkvmerge v15.0.0 ('Duel with the Devil') 64-bit
    Writing library                          : libebml v1.3.5 + libmatroska v1.4.5 / Lavf57.7.2

    Video
    ID                                       : 1
    Format                                   : AVC
    Format/Info                              : Advanced Video Codec
    Format profile                           : High@L4.1
    Format settings                          : CABAC / 4 Ref Frames
    Format settings, CABAC                   : Yes
    Format settings, RefFrames               : 4 frames
    Codec ID                                 : V_MPEG4/ISO/AVC
    Duration                                 : 1 h 24 min
    Bit rate                                 : 6 071 kb/s
    Width                                    : 1 920 pixels
    Height                                   : 1 080 pixels
    Display aspect ratio                     : 16:9
    Frame rate mode                          : Constant
    Frame rate                               : 23.976 (24000/1001) FPS
    Color space                              : YUV
    Chroma subsampling                       : 4:2:0
    Bit depth                                : 8 bits
    Scan type                                : Progressive
    Bits/(Pixel*Frame)                       : 0.122
    Stream size                              : 3.59 GiB (72%)
    Title                                    : Action Point (2018) Full 1080p Latino
    Writing library                          : x264 core 148 r2708 86b7198
    Encoding settings                        : cabac=1 / ref=4 / deblock=1:0:0 / analyse=0x3:0x133 / me=esa / subme=10 / psy=1 / psy_rd=1.00:0.00 / mixed_ref=1 / me_range=24 / chroma_me=1 / trellis=2 / 8x8dct=1 / cqm=0 / deadzone=21,11 / fast_pskip=1 / chroma_qp_offset=-2 / threads=34 / lookahead_threads=5 / sliced_threads=0 / nr=0 / decimate=1 / interlaced=0 / bluray_compat=0 / constrained_intra=0 / bframes=8 / b_pyramid=2 / b_adapt=2 / b_bias=0 / direct=3 / weightb=1 / open_gop=0 / weightp=2 / keyint=240 / keyint_min=24 / scenecut=40 / intra_refresh=0 / rc_lookahead=60 / rc=crf / mbtree=1 / crf=20.0 / qcomp=0.60 / qpmin=0 / qpmax=69 / qpstep=4 / vbv_maxrate=62500 / vbv_bufsize=78125 / crf_max=0.0 / nal_hrd=none / filler=0 / ip_ratio=1.40 / aq=1:1.00
    Language                                 : English
    Default                                  : Yes
    Forced                                   : No
    Color range                              : Limited
    Color primaries                          : BT.709
    Transfer characteristics                 : BT.709
    Matrix coefficients                      : BT.709
    Statistics Tags Issue                    : mkvmerge v15.0.0 ('Duel with the Devil') 64-bit 2018-08-15 03:07:50 / mkvmerge v15.0.0 ('Duel with the Devil') 64-bit 2018-08-15 03:07:50 / UTC 2018-08-14T08:16:26Z
    FromStats_BitRate                        : 6190238
    FromStats_Duration                       : 01:24:37.906000000
    FromStats_FrameCount                     : 121748
    FromStats_StreamSize                     : 3929181337

    Audio #1
    ID                                       : 2
    Format                                   : AC-3
    Format/Info                              : Audio Coding 3
    Format settings, Endianness              : Big
    Codec ID                                 : A_AC3
    Duration                                 : 1 h 24 min
    Bit rate mode                            : Constant
    Bit rate                                 : 640 kb/s
    Channel(s)                               : 6 channels
    Channel positions                        : Front: L C R, Side: L R, LFE
    Sampling rate                            : 48.0 kHz
    Frame rate                               : 31.250 FPS (1536 SPF)
    Bit depth                                : 16 bits
    Compression mode                         : Lossy
    Stream size                              : 387 MiB (8%)
    Language                                 : Spanish
    Service kind                             : Complete Main
    Default                                  : Yes
    Forced                                   : No
    Statistics Tags Issue                    : mkvmerge v15.0.0 ('Duel with the Devil') 64-bit 2018-08-15 03:07:50 / mkvmerge v15.0.0 ('Duel with the Devil') 64-bit 2018-08-15 03:07:50 / UTC 2018-08-14T08:16:26Z
    FromStats_BitRate                        : 640000
    FromStats_Duration                       : 01:24:37.920000000
    FromStats_FrameCount                     : 158685
    FromStats_StreamSize                     : 406233600

    Audio #2
    ID                                       : 3
    Format                                   : DTS
    Format/Info                              : Digital Theater Systems
    Mode                                     : 16
    Format settings, Endianness              : Big
    Codec ID                                 : A_DTS
    Duration                                 : 1 h 24 min
    Bit rate mode                            : Constant
    Bit rate                                 : 1 509 kb/s
    Channel(s)                               : 6 channels
    Channel positions                        : Front: L C R, Side: L R, LFE
    Sampling rate                            : 48.0 kHz
    Frame rate                               : 93.750 FPS (512 SPF)
    Bit depth                                : 24 bits
    Compression mode                         : Lossy
    Stream size                              : 913 MiB (18%)
    Language                                 : English
    Default                                  : No
    Forced                                   : No
    Statistics Tags Issue                    : mkvmerge v15.0.0 ('Duel with the Devil') 64-bit 2018-08-15 03:07:50 / mkvmerge v15.0.0 ('Duel with the Devil') 64-bit 2018-08-15 03:07:50 / UTC 2018-08-14T08:16:26Z
    FromStats_BitRate                        : 1508999
    FromStats_Duration                       : 01:24:37.899000000
    FromStats_FrameCount                     : 476053
    FromStats_StreamSize                     : 957818636

    Text #1
    ID                                       : 4
    Format                                   : PGS
    Muxing mode                              : zlib
    Codec ID                                 : S_HDMV/PGS
    Codec ID/Info                            : Picture based subtitle format used on BDs/HD-DVDs
    Language                                 : English
    Default                                  : No
    Forced                                   : No
    Statistics Tags Issue                    : mkvmerge v15.0.0 ('Duel with the Devil') 64-bit 2018-08-15 03:07:50 / mkvmerge v15.0.0 ('Duel with the Devil') 64-bit 2018-08-15 03:07:50 / UTC 2018-08-14T08:16:26Z
    FromStats_BitRate                        : 45387
    FromStats_Duration                       : 01:17:30.938000000
    FromStats_FrameCount                     : 2278
    FromStats_StreamSize                     : 26386679

    Text #2
    ID                                       : 5
    Format                                   : PGS
    Muxing mode                              : zlib
    Codec ID                                 : S_HDMV/PGS
    Codec ID/Info                            : Picture based subtitle format used on BDs/HD-DVDs
    Language                                 : Spanish
    Default                                  : No
    Forced                                   : No
    Statistics Tags Issue                    : mkvmerge v15.0.0 ('Duel with the Devil') 64-bit 2018-08-15 03:07:50 / mkvmerge v15.0.0 ('Duel with the Devil') 64-bit 2018-08-15 03:07:50 / UTC 2018-08-14T08:16:26Z
    FromStats_BitRate                        : 39461
    FromStats_Duration                       : 01:23:52.152000000
    FromStats_FrameCount                     : 2288
    FromStats_StreamSize                     : 24822336

    Menu
    00:00:00.000                             : :Chapter 1
    00:13:22.218                             : :Chapter 2
    00:20:20.219                             : :Chapter 3
    00:27:39.867                             : :Chapter 4
    00:36:38.446                             : :Chapter 5
    00:44:15.528                             : :Chapter 6
    00:51:59.408                             : :Chapter 7
    00:57:39.539                             : :Chapter 8
    01:05:17.038                             : :Chapter 9
    01:14:09.236                             : :Chapter 10

  • Peso: 4.96 GiB

Sinopsis

Un temerario doble de acción diseña y opera su propio parque temático con sus amigos.

Ficha técnica

  • Titulo original: Action Point
  • Fecha de lanzamiento: 01-06-2018 (South Africa, United States of America)
  • Director: Tim Kirkby
  • Género: Comedia, FULL 1080p Plateadas
  • Puntuación: 5.0 2 votos
  • Duración:
    1 h 24 min

Video trailer de la película

Enlaces de descarga

Rip de Bluray

Descargar Action Point (2018) Full 1080p Latino




Aportes de DPeliculasHDmega la pass es:dpeliculashdmega.org Aportes de CinemaniaHD la pass es:cinemaniahdd.com
Guardado en : Comedia , FULL 1080p Plateadas

Películas relacionadas

Comentarios 0