×

¿Problemas para descargar con Mozilla, EDGE? Deshabilita la opción "Abrir vinculos en una pestaña nueva" tal como lo muestra ésta imagen.

Act of Valor (2012) WEB-DL 4K SDR Latino – CMHDD

350 vistas

Información de Act of Valor (2012) WEB-DL 4K SDR Latino – CMHDD

Datos de la película

  • Calidad: WEBDL
  • Audio: Español Latino AC3 2.0 WEB-DL - Ingles AC3 5.1 WEB-DL
  • Subtitulos: Español Latino SRT
  • Resolución: 3840x2160p
  • Formato: MKV
  • Codec: H.264
  • Encoder: Dracarys
  • Mediainfo: Clic para Mostrar Datos Ver
  • Format                      : Matroska
    Format version              : Version 4
    File size                   : 11.4 GiB
    Duration                    : 1 h 50 min
    Overall bit rate            : 14.7 Mb/s
    Movie name                  : Act of Valor (2012) WEB-DL 4K SDR Latino - CMHDD
    Encoded date                : UTC 2021-05-15 07:50:12
    Writing application         : mkvmerge v56.1.0 ('My Friend') 64-bit
    Writing library             : libebml v1.4.2 + libmatroska v1.6.4
    Cover                       : Yes
    Attachments                 : cover.jpg

    Video
    ID                          : 1
    Format                      : HEVC
    Format/Info                 : High Efficiency Video Coding
    Format profile              : Main@L5@Main
    Codec ID                    : V_MPEGH/ISO/HEVC
    Duration                    : 1 h 50 min
    Bit rate                    : 14.3 Mb/s
    Width                       : 3 840 pixels
    Height                      : 2 160 pixels
    Display aspect ratio        : 16:9
    Frame rate mode             : Constant
    Frame rate                  : 23.976 (24000/1001) FPS
    Color space                 : YUV
    Chroma subsampling          : 4:2:0
    Bit depth                   : 8 bits
    Bits/(Pixel*Frame)          : 0.072
    Stream size                 : 11.0 GiB (97%)
    Language                    : English
    Default                     : Yes
    Forced                      : No

    Audio #1
    ID                          : 2
    Format                      : AC-3
    Format/Info                 : Audio Coding 3
    Commercial name             : Dolby Digital
    Codec ID                    : A_AC3
    Duration                    : 1 h 50 min
    Bit rate mode               : Constant
    Bit rate                    : 192 kb/s
    Channel(s)                  : 2 channels
    Channel layout              : L R
    Sampling rate               : 44.1 kHz
    Frame rate                  : 28.711 FPS (1536 SPF)
    Compression mode            : Lossy
    Stream size                 : 151 MiB (1%)
    Language                    : Spanish
    Service kind                : Complete Main
    Default                     : Yes
    Forced                      : No

    Audio #2
    ID                          : 3
    Format                      : E-AC-3
    Format/Info                 : Enhanced AC-3
    Commercial name             : Dolby Digital Plus
    Codec ID                    : A_EAC3
    Duration                    : 1 h 50 min
    Bit rate mode               : Constant
    Bit rate                    : 256 kb/s
    Channel(s)                  : 6 channels
    Channel layout              : L R C LFE Ls Rs
    Sampling rate               : 48.0 kHz
    Frame rate                  : 31.250 FPS (1536 SPF)
    Compression mode            : Lossy
    Stream size                 : 202 MiB (2%)
    Language                    : English
    Service kind                : Complete Main
    Default                     : No
    Forced                      : No

    Text
    ID                          : 4
    Format                      : UTF-8
    Codec ID                    : S_TEXT/UTF8
    Codec ID/Info               : UTF-8 Plain Text
    Duration                    : 1 h 41 min
    Bit rate                    : 48 b/s
    Count of elements           : 998
    Stream size                 : 36.0 KiB (0%)
    Language                    : Spanish
    Default                     : No
    Forced                      : No

  • Peso: 11.4 GiB

Sinopsis

‘Acto de valor’ nos introduce en el día a día de la Armada de los Estados Unidos (a los que se denomina como Navy SEALs). En ella seguiremos los entrenamientos y las maniobras de un grupo de aguerridos soldados que se preparan día a día para poder emprender las tareas físicas y también las estrategias militares más insospechadas. La mayor parte de las acciones que se emprenden en la película tienen una base de autenticidad. Cuando se desarrollan las tácticas militares, es como si estuviéramos presenciándolas de primera mano, casi como si se tratara de un documental. Los miembros de la brigada tendrán que hacer frente en esta ocasión a una conspiración internacional relacionada con el terrorismo y se embarcarán en una misión de alto secreto para mantener estable la paz mundial.

Ficha técnica

Video trailer de la película

Enlaces de descarga

Rip de Bluray

Descargar Act of Valor (2012) WEB-DL 4K SDR Latino – CMHDD




Aportes de DPeliculasHDmega la pass es:dpeliculashdmega.org Aportes de CinemaniaHD la pass es:cinemaniahdd.com
Guardado en : Acción , Bélica , Suspenso

Películas relacionadas

descargar Act of Valor (2012) WEB-DL 4K SDR Latino – CMHDD WEBDL 1080p gratis, Act of Valor (2012) WEB-DL 4K SDR Latino – CMHDD WEBDL mega 1 link, Act of Valor (2012) WEB-DL 4K SDR Latino – CMHDD WEBDL pelicula completa, descargar Act of Valor (2012) WEB-DL 4K SDR Latino – CMHDD WEBDL gratis en mega.

Act of Valor (2012) WEB-DL 4K SDR Latino – CMHDD pelicula full hd, Act of Valor (2012) WEB-DL 4K SDR Latino – CMHDD mega latino, Act of Valor (2012) WEB-DL 4K SDR Latino – CMHDD 4k latino, Act of Valor (2012) WEB-DL 4K SDR Latino – CMHDD pelicula completa, Act of Valor (2012) WEB-DL 4K SDR Latino – CMHDD descargar gratis, descargar Act of Valor (2012) WEB-DL 4K SDR Latino – CMHDD pelicula latino, Act of Valor (2012) WEB-DL 4K SDR Latino – CMHDD 1 link mega, Act of Valor (2012) WEB-DL 4K SDR Latino – CMHDD 1 link google drive, Act of Valor (2012) WEB-DL 4K SDR Latino – CMHDD hd 1080p latino.
Comentarios 0