Act of Valor (2012) REMUX 1080p Latino – CMHDD

47 vistas
1 estrella2 estrellas3 estrellas4 estrellas5 estrellas (Ninguna valoración todavía)
Cargando...

Información de Act of Valor (2012) REMUX 1080p Latino – CMHDD

Datos de la película

  • Calidad: Full 1080p
  • Audio: Español Latino AC3 2.0 DVD - Ingles DTS 5.1 BLURAY
  • Subtitulos: Español Latino PGS
  • Resolución: 1920x1080p
  • Formato: MKV
  • Codec: H.264
  • Encoder: Dracarys
  • Mediainfo: Clic para Mostrar Datos Ver
  • Format                      : Matroska
    Format version              : Version 4
    File size                   : 24.9 GiB
    Duration                    : 1 h 50 min
    Overall bit rate mode       : Variable
    Overall bit rate            : 32.3 Mb/s
    Movie name                  : Act of Valor (2012) REMUX 1080p Latino - CMHDD
    Encoded date                : UTC 2021-05-15 07:37:21
    Writing application         : mkvmerge v56.1.0 ('My Friend') 64-bit
    Writing library             : libebml v1.4.2 + libmatroska v1.6.4
    Cover                       : Yes
    Attachments                 : cover.jpg

    Video
    ID                          : 1
    ID in the original source m : 4113 (0x1011)
    Format                      : AVC
    Format/Info                 : Advanced Video Codec
    Format profile              : High@L4.1
    Format settings             : CABAC / 4 Ref Frames
    Format settings, CABAC      : Yes
    Format settings, Reference  : 4 frames
    Codec ID                    : V_MPEG4/ISO/AVC
    Duration                    : 1 h 50 min
    Bit rate mode               : Variable
    Bit rate                    : 28.2 Mb/s
    Maximum bit rate            : 38.0 Mb/s
    Width                       : 1 920 pixels
    Height                      : 1 080 pixels
    Display aspect ratio        : 16:9
    Frame rate mode             : Constant
    Frame rate                  : 23.976 (24000/1001) FPS
    Color space                 : YUV
    Chroma subsampling          : 4:2:0
    Bit depth                   : 8 bits
    Scan type                   : Progressive
    Bits/(Pixel*Frame)          : 0.566
    Stream size                 : 21.7 GiB (87%)
    Default                     : Yes
    Forced                      : No
    Original source medium      : Blu-ray

    Audio #1
    ID                          : 2
    Format                      : AC-3
    Format/Info                 : Audio Coding 3
    Commercial name             : Dolby Digital
    Codec ID                    : A_AC3
    Duration                    : 1 h 50 min
    Bit rate mode               : Constant
    Bit rate                    : 192 kb/s
    Channel(s)                  : 2 channels
    Channel layout              : L R
    Sampling rate               : 44.1 kHz
    Frame rate                  : 28.711 FPS (1536 SPF)
    Compression mode            : Lossy
    Stream size                 : 151 MiB (1%)
    Language                    : Spanish
    Service kind                : Complete Main
    Default                     : Yes
    Forced                      : No

    Audio #2
    ID                          : 3
    ID in the original source m : 4352 (0x1100)
    Format                      : DTS XLL
    Format/Info                 : Digital Theater Systems
    Commercial name             : DTS-HD Master Audio
    Codec ID                    : A_DTS
    Duration                    : 1 h 50 min
    Bit rate mode               : Variable
    Bit rate                    : 3 951 kb/s
    Channel(s)                  : 6 channels
    Channel layout              : C L R Ls Rs LFE
    Sampling rate               : 48.0 kHz
    Frame rate                  : 93.750 FPS (512 SPF)
    Bit depth                   : 24 bits
    Compression mode            : Lossless
    Stream size                 : 3.04 GiB (12%)
    Language                    : English
    Default                     : No
    Forced                      : No
    Original source medium      : Blu-ray

    Text
    ID                          : 4
    ID in the original source m : 4609 (0x1201)
    Format                      : PGS
    Muxing mode                 : zlib
    Codec ID                    : S_HDMV/PGS
    Codec ID/Info               : Picture based subtitle format used on BDs/HD-DVDs
    Duration                    : 1 h 49 min
    Bit rate                    : 30.0 kb/s
    Count of elements           : 1946
    Stream size                 : 23.5 MiB (0%)
    Language                    : Spanish
    Default                     : Yes
    Forced                      : No
    Original source medium      : Blu-ray

    Menu
    00:00:00.000                : Chapter 01
    00:04:13.711                : Chapter 02
    00:08:14.619                : Chapter 03
    00:11:40.199                : Chapter 04
    00:15:51.367                : Chapter 05
    00:20:26.934                : Chapter 06
    00:25:32.280                : Chapter 07
    00:30:10.058                : Chapter 08
    00:35:50.606                : Chapter 09
    00:39:21.150                : Chapter 10
    00:43:02.037                : Chapter 11
    00:48:31.199                : Chapter 12
    00:51:46.061                : Chapter 13
    00:54:54.791                : Chapter 14
    00:58:58.618                : Chapter 15
    01:02:49.056                : Chapter 16
    01:08:10.461                : Chapter 17
    01:11:54.560                : Chapter 18
    01:17:47.871                : Chapter 19
    01:21:51.156                : Chapter 20
    01:26:12.750                : Chapter 21
    01:32:46.352                : Chapter 22
    01:35:48.617                : Chapter 23
    01:41:55.109                : Chapter 24

  • Peso: 24.9 GiB

Sinopsis

‘Acto de valor’ nos introduce en el día a día de la Armada de los Estados Unidos (a los que se denomina como Navy SEALs). En ella seguiremos los entrenamientos y las maniobras de un grupo de aguerridos soldados que se preparan día a día para poder emprender las tareas físicas y también las estrategias militares más insospechadas. La mayor parte de las acciones que se emprenden en la película tienen una base de autenticidad. Cuando se desarrollan las tácticas militares, es como si estuviéramos presenciándolas de primera mano, casi como si se tratara de un documental. Los miembros de la brigada tendrán que hacer frente en esta ocasión a una conspiración internacional relacionada con el terrorismo y se embarcarán en una misión de alto secreto para mantener estable la paz mundial.

Ficha técnica

Video trailer de la película

Enlaces de descarga

Rip de Bluray

Descargar Act of Valor (2012) REMUX 1080p Latino – CMHDD


Aportes de DPeliculasHDmega la pass es:dpeliculashdmega.org Aportes de CinemaniaHD la pass es:cinemaniahdd.com
Guardado en : Acción , Bélica , Suspenso

Películas relacionadas

  • The Hatred (2017) WEB-DL 1080p Latino

    The Hatred (2017) WEB-DL 1080p Latino

    2017
    The Hatred (2017) WEB-DL 1080p Latino

    5.0 1h 34m 2017

    Cuatro mujeres jóvenes viajan a la nueva casa de campo de su profesor universitario para una escapada...

    Director: Michael G. Kehoe

    Género: Suspenso

    Actores: Tim DeZarn

  • S.W.A.T (2019) WEB-DL 1080p Latino

    S.W.A.T (2019) WEB-DL 1080p Latino

    2019
    S.W.A.T (2019) WEB-DL 1080p Latino

    5.0 0h 0m 2019

    Una Unidad de Fuerzas Especiales ha organizado una serie de ejercicios de combate para seleccionar a...

    Director: Ding Sheng

    Género: Acción

    Actores: Zhao Xiaorui

  • Servants of War (2019) WEB-DL 1080p Latino

    Servants of War (2019) WEB-DL 1080p Latino

    2019
    Servants of War (2019) WEB-DL 1080p Latino

    5.0 1h 38m 2019

    El conocido profesor Professor Jerzy Abramski es asesinado. De su investigación se encarga el inspector...

    Director: Mariusz Gawryś

    Género: Crimen

    Actores: Zbigniew Stryj

Act of Valor (2012) REMUX 1080p Latino – CMHDD pelicula full hd, Act of Valor (2012) REMUX 1080p Latino – CMHDD mega latino, Act of Valor (2012) REMUX 1080p Latino – CMHDD 4k latino, Act of Valor (2012) REMUX 1080p Latino – CMHDD pelicula completa, Act of Valor (2012) REMUX 1080p Latino – CMHDD descargar gratis, descargar Act of Valor (2012) REMUX 1080p Latino – CMHDD pelicula latino, Act of Valor (2012) REMUX 1080p Latino – CMHDD 1 link mega, Act of Valor (2012) REMUX 1080p Latino – CMHDD 1 link google drive, Act of Valor (2012) REMUX 1080p Latino – CMHDD hd 1080p latino.