×

¿Problemas para descargar con Mozilla, EDGE? Deshabilita la opción "Abrir vinculos en una pestaña nueva" tal como lo muestra ésta imagen.

Act of Valor (2012) Full HD 1080p Latino – CMHDD

255 vistas

Información de Act of Valor (2012) Full HD 1080p Latino – CMHDD

Datos de la película

  • Calidad: Full 1080p
  • Audio: Español Latino AC3 2.0 DVD - Ingles DTS 5.1 BLURAY
  • Subtitulos: Español Latino PGS
  • Resolución: 1920x1080p
  • Formato: MKV
  • Codec: H.264
  • Encoder: Dracarys
  • Mediainfo: Clic para Mostrar Datos Ver
  • Format                      : Matroska
    Format version              : Version 4
    File size                   : 7.68 GiB
    Duration                    : 1 h 50 min
    Overall bit rate mode       : Variable
    Overall bit rate            : 9 971 kb/s
    Movie name                  : Act of Valor (2012) Full HD 1080p Latino - CMHDD
    Encoded date                : UTC 2021-05-19 01:48:36
    Writing application         : mkvmerge v56.1.0 ('My Friend') 64-bit
    Writing library             : libebml v1.4.2 + libmatroska v1.6.4

    Video
    ID                          : 1
    Format                      : AVC
    Format/Info                 : Advanced Video Codec
    Format profile              : High@L4.1
    Format settings             : CABAC / 4 Ref Frames
    Format settings, CABAC      : Yes
    Format settings, Reference  : 4 frames
    Codec ID                    : V_MPEG4/ISO/AVC
    Duration                    : 1 h 50 min
    Bit rate                    : 5 815 kb/s
    Width                       : 1 920 pixels
    Height                      : 1 080 pixels
    Display aspect ratio        : 16:9
    Frame rate mode             : Constant
    Frame rate                  : 23.976 (24000/1001) FPS
    Color space                 : YUV
    Chroma subsampling          : 4:2:0
    Bit depth                   : 8 bits
    Scan type                   : Progressive
    Bits/(Pixel*Frame)          : 0.117
    Stream size                 : 4.48 GiB (58%)
    Writing library             : x264 core 157 r2935 545de2f
    Encoding settings           : cabac=1 / ref=4 / deblock=1:0:0 / analyse=0x3:0x133 / me=tesa / subme=11 / psy=1 / psy_rd=1.00:0.00 / mixed_ref=1 / me_range=24 / chroma_me=1 / trellis=2 / 8x8dct=1 / cqm=0 / deadzone=21,11 / fast_pskip=0 / chroma_qp_offset=-2 / threads=24 / lookahead_threads=6 / sliced_threads=0 / nr=0 / decimate=1 / interlaced=0 / bluray_compat=0 / constrained_intra=0 / bframes=16 / b_pyramid=2 / b_adapt=2 / b_bias=0 / direct=3 / weightb=1 / open_gop=0 / weightp=2 / keyint=240 / keyint_min=24 / scenecut=40 / intra_refresh=0 / rc_lookahead=60 / rc=crf / mbtree=1 / crf=20.0 / qcomp=0.60 / qpmin=0 / qpmax=69 / qpstep=4 / vbv_maxrate=62500 / vbv_bufsize=78125 / crf_max=0.0 / nal_hrd=none / filler=0 / ip_ratio=1.40 / aq=1:1.00
    Default                     : Yes
    Forced                      : No
    Color range                 : Limited
    Color primaries             : BT.709
    Transfer characteristics    : BT.709
    Matrix coefficients         : BT.709

    Audio #1
    ID                          : 2
    Format                      : AC-3
    Format/Info                 : Audio Coding 3
    Commercial name             : Dolby Digital
    Codec ID                    : A_AC3
    Duration                    : 1 h 50 min
    Bit rate mode               : Constant
    Bit rate                    : 192 kb/s
    Channel(s)                  : 2 channels
    Channel layout              : L R
    Sampling rate               : 44.1 kHz
    Frame rate                  : 28.711 FPS (1536 SPF)
    Compression mode            : Lossy
    Stream size                 : 151 MiB (2%)
    Language                    : Spanish
    Service kind                : Complete Main
    Default                     : Yes
    Forced                      : No

    Audio #2
    ID                          : 3
    Format                      : DTS XLL
    Format/Info                 : Digital Theater Systems
    Commercial name             : DTS-HD Master Audio
    Codec ID                    : A_DTS
    Duration                    : 1 h 50 min
    Bit rate mode               : Variable
    Bit rate                    : 3 951 kb/s
    Channel(s)                  : 6 channels
    Channel layout              : C L R Ls Rs LFE
    Sampling rate               : 48.0 kHz
    Frame rate                  : 93.750 FPS (512 SPF)
    Bit depth                   : 24 bits
    Compression mode            : Lossless
    Stream size                 : 3.04 GiB (40%)
    Language                    : English
    Default                     : No
    Forced                      : No

    Text
    ID                          : 4
    Format                      : PGS
    Muxing mode                 : zlib
    Codec ID                    : S_HDMV/PGS
    Codec ID/Info               : Picture based subtitle format used on BDs/HD-DVDs
    Duration                    : 1 h 49 min
    Bit rate                    : 30.0 kb/s
    Count of elements           : 1946
    Stream size                 : 23.5 MiB (0%)
    Language                    : Spanish
    Default                     : No
    Forced                      : No

    Menu
    00:00:00.000                : :Chapter 1
    00:04:13.712                : :Chapter 2
    00:08:14.744                : :Chapter 3
    00:11:40.200                : :Chapter 4
    00:15:51.492                : :Chapter 5
    00:20:27.017                : :Chapter 6
    00:25:32.281                : :Chapter 7
    00:30:10.183                : :Chapter 8
    00:35:50.607                : :Chapter 9
    00:39:21.234                : :Chapter 10
    00:43:02.038                : :Chapter 11
    00:48:31.200                : :Chapter 12
    00:51:46.186                : :Chapter 13
    00:54:54.792                : :Chapter 14
    00:58:58.744                : :Chapter 15
    01:02:49.057                : :Chapter 16
    01:08:10.545                : :Chapter 17
    01:11:54.685                : :Chapter 18
    01:17:47.872                : :Chapter 19
    01:21:51.281                : :Chapter 20
    01:26:12.751                : :Chapter 21
    01:32:46.478                : :Chapter 22
    01:35:48.618                : :Chapter 23
    01:41:55.109                : :Chapter 24

  • Peso: 7.68 GiB

Sinopsis

‘Acto de valor’ nos introduce en el día a día de la Armada de los Estados Unidos (a los que se denomina como Navy SEALs). En ella seguiremos los entrenamientos y las maniobras de un grupo de aguerridos soldados que se preparan día a día para poder emprender las tareas físicas y también las estrategias militares más insospechadas. La mayor parte de las acciones que se emprenden en la película tienen una base de autenticidad. Cuando se desarrollan las tácticas militares, es como si estuviéramos presenciándolas de primera mano, casi como si se tratara de un documental. Los miembros de la brigada tendrán que hacer frente en esta ocasión a una conspiración internacional relacionada con el terrorismo y se embarcarán en una misión de alto secreto para mantener estable la paz mundial.

Ficha técnica

Video trailer de la película

Enlaces de descarga

Rip de Bluray

Descargar Act of Valor (2012) Full HD 1080p Latino – CMHDD




Aportes de DPeliculasHDmega la pass es:dpeliculashdmega.org Aportes de CinemaniaHD la pass es:cinemaniahdd.com
Guardado en : Acción , Bélica , Suspenso

Películas relacionadas

descargar Act of Valor (2012) Full HD 1080p Latino – CMHDD Full 1080p 1080p gratis, Act of Valor (2012) Full HD 1080p Latino – CMHDD Full 1080p mega 1 link, Act of Valor (2012) Full HD 1080p Latino – CMHDD Full 1080p pelicula completa, descargar Act of Valor (2012) Full HD 1080p Latino – CMHDD Full 1080p gratis en mega.

Act of Valor (2012) Full HD 1080p Latino – CMHDD pelicula full hd, Act of Valor (2012) Full HD 1080p Latino – CMHDD mega latino, Act of Valor (2012) Full HD 1080p Latino – CMHDD 4k latino, Act of Valor (2012) Full HD 1080p Latino – CMHDD pelicula completa, Act of Valor (2012) Full HD 1080p Latino – CMHDD descargar gratis, descargar Act of Valor (2012) Full HD 1080p Latino – CMHDD pelicula latino, Act of Valor (2012) Full HD 1080p Latino – CMHDD 1 link mega, Act of Valor (2012) Full HD 1080p Latino – CMHDD 1 link google drive, Act of Valor (2012) Full HD 1080p Latino – CMHDD hd 1080p latino.