AC/DC – Live at River Plate (2009) Full 1080p Concierto

4.571 vistas
1 estrella2 estrellas3 estrellas4 estrellas5 estrellas (10 votos, promedio: 3,80 de 5)
Cargando...

Información de AC/DC – Live at River Plate (2009) Full 1080p Concierto

Datos de la película

  • Calidad: Full 1080p
  • Audio: Ingles AC3 5.1 BLURAY
  • Subtitulos: No
  • Resolución: 1920x1080p
  • Formato: MKV
  • Codec: H.264
  • Encoder: Dracarys
  • Mediainfo: Clic para Mostrar Datos Ver
  • Format                                   : Matroska
    Format version                           : Version 4 / Version 2
    File size                                : 13.0 GiB
    Duration                                 : 1 h 51 min
    Overall bit rate                         : 16.7 Mb/s
    Movie name                               : CinemaniaHDD.com
    Encoded date                             : UTC 2018-05-20 03:15:08 / UTC 2018-05-19T18:09:39Z
    Writing application                      : mkvmerge v15.0.0 ('Duel with the Devil') 64-bit
    Writing library                          : libebml v1.3.5 + libmatroska v1.4.5 / Lavf57.7.2

    Video
    ID                                       : 1
    Format                                   : AVC
    Format/Info                              : Advanced Video Codec
    Format profile                           : High@L4.1
    Format settings                          : CABAC / 4 Ref Frames
    Format settings, CABAC                   : Yes
    Format settings, RefFrames               : 4 frames
    Codec ID                                 : V_MPEG4/ISO/AVC
    Duration                                 : 1 h 51 min
    Bit rate                                 : 15.8 Mb/s
    Width                                    : 1 920 pixels
    Height                                   : 1 080 pixels
    Display aspect ratio                     : 16:9
    Frame rate mode                          : Constant
    Frame rate                               : 23.976 (24000/1001) FPS
    Color space                              : YUV
    Chroma subsampling                       : 4:2:0
    Bit depth                                : 8 bits
    Scan type                                : Progressive
    Bits/(Pixel*Frame)                       : 0.317
    Stream size                              : 12.3 GiB (94%)
    Title                                    : ACDC - Live at River Plate (2009) Full 1080p Concierto
    Writing library                          : x264 core 148 r2708 86b7198
    Encoding settings                        : cabac=1 / ref=4 / deblock=1:0:0 / analyse=0x3:0x133 / me=esa / subme=9 / psy=1 / psy_rd=1.00:0.00 / mixed_ref=1 / me_range=16 / chroma_me=1 / trellis=2 / 8x8dct=1 / cqm=0 / deadzone=21,11 / fast_pskip=1 / chroma_qp_offset=-2 / threads=34 / lookahead_threads=2 / sliced_threads=0 / nr=0 / decimate=1 / interlaced=0 / bluray_compat=0 / constrained_intra=0 / bframes=3 / b_pyramid=2 / b_adapt=2 / b_bias=0 / direct=3 / weightb=1 / open_gop=0 / weightp=2 / keyint=240 / keyint_min=24 / scenecut=40 / intra_refresh=0 / rc_lookahead=60 / rc=crf / mbtree=1 / crf=20.0 / qcomp=0.60 / qpmin=0 / qpmax=69 / qpstep=4 / vbv_maxrate=62500 / vbv_bufsize=78125 / crf_max=0.0 / nal_hrd=none / filler=0 / ip_ratio=1.40 / aq=1:1.00
    Language                                 : English
    Default                                  : Yes
    Forced                                   : No
    Color range                              : Limited
    Color primaries                          : BT.709
    Transfer characteristics                 : BT.709
    Matrix coefficients                      : BT.709
    Statistics Tags Issue                    : mkvmerge v15.0.0 ('Duel with the Devil') 64-bit 2018-05-20 03:15:08 / mkvmerge v15.0.0 ('Duel with the Devil') 64-bit 2018-05-20 03:15:08 / UTC 2018-05-19T18:09:39Z
    FromStats_BitRate                        : 16095214
    FromStats_Duration                       : 01:51:37.733000000
    FromStats_FrameCount                     : 160585
    FromStats_StreamSize                     : 13475180751

    Audio
    ID                                       : 2
    Format                                   : AC-3
    Format/Info                              : Audio Coding 3
    Format settings, Endianness              : Big
    Codec ID                                 : A_AC3
    Duration                                 : 1 h 51 min
    Bit rate mode                            : Constant
    Bit rate                                 : 640 kb/s
    Channel(s)                               : 6 channels
    Channel positions                        : Front: L C R, Side: L R, LFE
    Sampling rate                            : 48.0 kHz
    Frame rate                               : 31.250 FPS (1536 SPF)
    Bit depth                                : 16 bits
    Compression mode                         : Lossy
    Stream size                              : 511 MiB (4%)
    Language                                 : English
    Service kind                             : Complete Main
    Default                                  : No
    Forced                                   : No
    Statistics Tags Issue                    : mkvmerge v15.0.0 ('Duel with the Devil') 64-bit 2018-05-20 03:15:08 / mkvmerge v15.0.0 ('Duel with the Devil') 64-bit 2018-05-20 03:15:08 / UTC 2018-05-19T18:09:39Z
    FromStats_BitRate                        : 640000
    FromStats_Duration                       : 01:51:29.088000000
    FromStats_FrameCount                     : 209034
    FromStats_StreamSize                     : 535127040

    Menu
    00:00:00.000                             : :Chapter 1
    00:01:13.490                             : :Chapter 2
    00:05:43.468                             : :Chapter 3
    00:10:00.016                             : :Chapter 4
    00:14:10.183                             : :Chapter 5
    00:18:12.174                             : :Chapter 6
    00:22:58.127                             : :Chapter 7
    00:26:29.046                             : :Chapter 8
    00:32:05.841                             : :Chapter 9
    00:35:39.429                             : :Chapter 10
    00:46:24.615                             : :Chapter 11
    00:52:00.659                             : :Chapter 12
    00:57:52.886                             : :Chapter 13
    01:01:15.005                             : :Chapter 14
    01:05:52.740                             : :Chapter 15
    01:09:44.097                             : :Chapter 16
    01:13:40.791                             : :Chapter 17
    01:19:21.340                             : :Chapter 18
    01:37:05.153                             : :Chapter 19
    01:41:48.185                             : :Chapter 20

  • Peso: 13.0 GiB

Sinopsis

AC/DC presenta “Live At River Plate”, su primer álbum en vivo en 20 años. AC/DC Live At River Plate fue grabado en Buenos Aires en diciembre del 2009, cuando cerca de 200.000 fans (más de 3 noches con entradas agotadas) le dieron la bienvenida a AC/DC después de una ausencia de 13 años en Argentina. AC/DC Live At River Plate captura la energía que caracteriza las presentaciones de AC/DC. Esta grabación en vivo es una muestra de uno de los mayores shows de la exitosa gira “Black Ice World Tour” (donde se presentaron ante más de 5 millones de fans en 108 ciudades en más de 28 países). Las 19 canciones de AC/DC Live At River Plate repasan el extenso repertorio de AC/DC, incluyendo clásicos antiguos y nuevos, como «Back In Black», «Thunderstruck», «You Shook Me All Night Long» y «Rock N Roll Train» (ver más abajo para la lista completa de canciones).

Ficha técnica

  • Titulo original: AC/DC - Live at River Plate
  • Fecha de lanzamiento: 11-12-2009 (Argentina)
  • Director: David Mallet
  • Género: FULL 1080p Plateadas, Música
  • Puntuación: 3.8 10 votos
  • Duración:
    1 h 51 min

Video trailer de la película

Enlaces de descarga

Rip de Bluray

Descargar AC/DC – Live at River Plate (2009) Full 1080p Concierto




Aportes de DPeliculasHDmega la pass es:dpeliculashdmega.org Aportes de CinemaniaHD la pass es:cinemaniahdd.com
Guardado en : FULL 1080p Plateadas , Música

Películas relacionadas

Comentarios 2