×

¿Problemas para descargar con Mozilla, EDGE? Deshabilita la opción "Abrir vinculos en una pestaña nueva" tal como lo muestra ésta imagen.

Abuelos Principiantes (2020) REMUX 1080p Latino

351 vistas

Información de Abuelos Principiantes (2020) REMUX 1080p Latino

Datos de la película

  • Calidad: Full 1080p
  • Audio: Se especifica abajo de la Sinopsis
  • Subtitulos: Español Latino SRT- FORZADOS SRT
  • Resolución: 1920x1080p
  • Formato: MKV
  • Codec: H.264
  • Encoder: Melkor
  • Mediainfo: Clic para Mostrar Datos Ver
  • Abuelos Principiantes (2020) REMUX 1080p Latino.mkv
    Format                      : Matroska
    Format version              : Version 4
    File size                   : 29.0 GiB
    Duration                    : 1 h 44 min
    Overall bit rate mode       : Variable
    Overall bit rate            : 39.8 Mb/s
    Movie name                  : Granny Nanny (2020) [Enkel fuer Anfaenger] CinemaniaHDD.Net
    Encoded date                : UTC 2022-08-12 08:12:05
    Writing application         : mkvmerge v56.1.0 ('My Friend') 64-bit
    Writing library             : libebml v1.4.2 + libmatroska v1.6.4
    Attachments                 : CINEMANIAHD.png

    Video
    ID                          : 1
    Format                      : AVC
    Format/Info                 : Advanced Video Codec
    Format profile              : High@L4.1
    Format settings             : CABAC / 4 Ref Frames
    Format settings, CABAC      : Yes
    Format settings, Reference  : 4 frames
    Codec ID                    : V_MPEG4/ISO/AVC
    Duration                    : 1 h 44 min
    Bit rate mode               : Variable
    Bit rate                    : 35.8 Mb/s
    Maximum bit rate            : 40.0 Mb/s
    Width                       : 1 920 pixels
    Height                      : 1 080 pixels
    Display aspect ratio        : 16:9
    Frame rate mode             : Constant
    Frame rate                  : 24.000 FPS
    Color space                 : YUV
    Chroma subsampling          : 4:2:0
    Bit depth                   : 8 bits
    Scan type                   : Progressive
    Bits/(Pixel*Frame)          : 0.720
    Stream size                 : 26.2 GiB (90%)
    Title                       : REMUX HD1080p [CinemaniaHDD]
    Default                     : Yes
    Forced                      : Yes

    Audio #1
    ID                          : 2
    Format                      : AC-3
    Format/Info                 : Audio Coding 3
    Commercial name             : Dolby Digital
    Codec ID                    : A_AC3
    Duration                    : 1 h 44 min
    Bit rate mode               : Constant
    Bit rate                    : 256 kb/s
    Channel(s)                  : 2 channels
    Channel layout              : L R
    Sampling rate               : 48.0 kHz
    Frame rate                  : 31.250 FPS (1536 SPF)
    Compression mode            : Lossy
    Stream size                 : 191 MiB (1%)
    Title                       : Español Latino [CinemaniaHDD]
    Language                    : Spanish
    Service kind                : Complete Main
    Default                     : Yes
    Forced                      : Yes

    Audio #2
    ID                          : 3
    Format                      : DTS XLL
    Format/Info                 : Digital Theater Systems
    Commercial name             : DTS-HD Master Audio
    Codec ID                    : A_DTS
    Duration                    : 1 h 44 min
    Bit rate mode               : Variable
    Bit rate                    : 3 699 kb/s
    Channel(s)                  : 6 channels
    Channel layout              : C L R Ls Rs LFE
    Sampling rate               : 48.0 kHz
    Frame rate                  : 93.750 FPS (512 SPF)
    Bit depth                   : 24 bits
    Compression mode            : Lossless
    Stream size                 : 2.70 GiB (9%)
    Title                       : Aleman [CinemaniaHDD]
    Language                    : German
    Default                     : No
    Forced                      : No

    Text #1
    ID                          : 4
    Format                      : UTF-8
    Codec ID                    : S_TEXT/UTF8
    Codec ID/Info               : UTF-8 Plain Text
    Duration                    : 1 h 24 min
    Bit rate                    : 0 b/s
    Count of elements           : 5
    Stream size                 : 100 Bytes (0%)
    Title                       : Forzados-SRT [CinemaniaHDD]
    Language                    : Spanish
    Default                     : Yes
    Forced                      : Yes

    Text #2
    ID                          : 5
    Format                      : UTF-8
    Codec ID                    : S_TEXT/UTF8
    Codec ID/Info               : UTF-8 Plain Text
    Duration                    : 1 h 39 min
    Bit rate                    : 64 b/s
    Count of elements           : 1498
    Stream size                 : 47.0 KiB (0%)
    Title                       : Español-SRT [CinemaniaHDD]
    Language                    : Spanish
    Default                     : No
    Forced                      : No

    Menu
    00:00:00.000                : :Chapter 01
    00:12:10.625                : :Chapter 02
    00:23:25.375                : :Chapter 03
    00:33:39.125                : :Chapter 04
    00:44:09.875                : :Chapter 05
    00:55:03.791                : :Chapter 06
    01:04:26.458                : :Chapter 07
    01:16:08.625                : :Chapter 08
    01:27:11.458                : :Chapter 09
    01:36:50.500                : :Chapter 10

  • Peso: 29.0 GiB

Sinopsis

Descargar Abuelos Principiantes (2020) REMUX 1080p Latino. Un grupo de jubilados quiere escapar del aburrimiento de su vida cotidiana.

Español Latino AC3 2.0 – Aleman DTS-HD 5.1

Ficha técnica

  • Titulo original: Enkel für Anfänger
  • Fecha de lanzamiento: 06-02-2020 (Germany)
  • Director: Wolfgang Groos
  • Género: Comedia, Remux

Video trailer de la película

Enlaces de descarga

Rip de Bluray

Descargar Abuelos Principiantes (2020) REMUX 1080p Latino




Aportes de DPeliculasHDmega la pass es:dpeliculashdmega.org Aportes de CinemaniaHD la pass es:cinemaniahdd.com Aportes recientes:cinemaniahdd.net
Guardado en : Comedia , Remux

Películas relacionadas

  • Viviendo con mi ex (2006) REMUX 1080p Latino-CMHDD

    Viviendo con mi ex (2006) REMUX 1080p Latino-CMHDD

    2006
    Viviendo con mi ex (2006) REMUX 1080p Latino-CMHDD

    1h 46m 2006

    Descargar Viviendo con mi ex (2006) REMUX 1080p Latino-CMHDD. Relato sobre las consecuencias de una ruptura...

    Director: Todd Amateau

    Género: Comedia

    Actores: William Dick

  • The Lego Movie (2014) REMUX 4K HDR Latino – CMHDD

    The Lego Movie (2014) REMUX 4K HDR Latino – CMHDD

    2014
    The Lego Movie (2014) REMUX 4K HDR Latino – CMHDD

    1h 40m 2014

    Película basada en los clásicos juguetes LEGO. Emmet, el protagonista de la película, trabaja como...

    Director: Vernessa Cook

    Género: Animación

    Actores: Will Forte

  • The Lego Movie (2014) REMUX 1080p Latino – CMHDD

    The Lego Movie (2014) REMUX 1080p Latino – CMHDD

    2014
    The Lego Movie (2014) REMUX 1080p Latino – CMHDD

    1h 40m 2014

    Película basada en los clásicos juguetes LEGO. Emmet, el protagonista de la película, trabaja como...

    Director: Vernessa Cook

    Género: Animación

    Actores: Will Forte

descargar Abuelos Principiantes (2020) REMUX 1080p Latino Full 1080p 1080p gratis, Abuelos Principiantes (2020) REMUX 1080p Latino Full 1080p mega 1 link, Abuelos Principiantes (2020) REMUX 1080p Latino Full 1080p pelicula completa, descargar Abuelos Principiantes (2020) REMUX 1080p Latino Full 1080p gratis en mega.

Abuelos Principiantes (2020) REMUX 1080p Latino pelicula full hd, Abuelos Principiantes (2020) REMUX 1080p Latino mega latino, Abuelos Principiantes (2020) REMUX 1080p Latino 4k latino, Abuelos Principiantes (2020) REMUX 1080p Latino pelicula completa, Abuelos Principiantes (2020) REMUX 1080p Latino descargar gratis, descargar Abuelos Principiantes (2020) REMUX 1080p Latino pelicula latino, Abuelos Principiantes (2020) REMUX 1080p Latino 1 link mega, Abuelos Principiantes (2020) REMUX 1080p Latino 1 link google drive, Abuelos Principiantes (2020) REMUX 1080p Latino hd 1080p latino.
Comentarios 0