×

¿Problemas para descargar con Mozilla, EDGE? Deshabilita la opción "Abrir vinculos en una pestaña nueva" tal como lo muestra ésta imagen.

Absolute Power (1997) REMUX 1080p Latino – CMHDD

203 vistas

Información de Absolute Power (1997) REMUX 1080p Latino – CMHDD

Datos de la película

  • Calidad: Full 1080p
  • Audio: Español Latino AC3 2.0 BLURAY - Ingles DTS 5.1 BLURAY
  • Subtitulos: Español Latino PGS
  • Resolución: 1920x1080p
  • Formato: MKV
  • Codec: H.264
  • Encoder: Dracarys
  • Mediainfo: Clic para Mostrar Datos Ver
  • Format                      : Matroska
    Format version              : Version 4
    File size                   : 23.1 GiB
    Duration                    : 2 h 1 min
    Overall bit rate mode       : Variable
    Overall bit rate            : 27.3 Mb/s
    Movie name                  : Absolute Power (1997) REMUX 1080p Latino - CMHDD
    Encoded date                : UTC 2021-10-03 18:33:20
    Writing application         : mkvmerge v17.0.0 ('Be Ur Friend') 64-bit
    Writing library             : libebml v1.3.5 + libmatroska v1.4.8

    Video
    ID                          : 1
    Format                      : VC-1
    Format profile              : Advanced@L3
    Codec ID                    : V_MS/VFW/FOURCC / WVC1
    Codec ID/Hint               : Microsoft
    Duration                    : 2 h 1 min
    Bit rate                    : 23.0 Mb/s
    Width                       : 1 920 pixels
    Height                      : 1 080 pixels
    Display aspect ratio        : 16:9
    Frame rate mode             : Constant
    Frame rate                  : 23.976 (24000/1001) FPS
    Color space                 : YUV
    Chroma subsampling          : 4:2:0
    Bit depth                   : 8 bits
    Scan type                   : Progressive
    Compression mode            : Lossy
    Bits/(Pixel*Frame)          : 0.462
    Stream size                 : 19.4 GiB (84%)
    Default                     : Yes
    Forced                      : No

    Audio #1
    ID                          : 2
    Format                      : DTS XLL
    Format/Info                 : Digital Theater Systems
    Commercial name             : DTS-HD Master Audio
    Codec ID                    : A_DTS
    Duration                    : 2 h 1 min
    Bit rate mode               : Variable
    Bit rate                    : 4 069 kb/s
    Channel(s)                  : 6 channels
    Channel layout              : C L R Ls Rs LFE
    Sampling rate               : 48.0 kHz
    Frame rate                  : 93.750 FPS (512 SPF)
    Bit depth                   : 24 bits
    Compression mode            : Lossless
    Stream size                 : 3.44 GiB (15%)
    Language                    : English
    Default                     : No
    Forced                      : No

    Audio #2
    ID                          : 3
    Format                      : AC-3
    Format/Info                 : Audio Coding 3
    Commercial name             : Dolby Digital
    Format settings             : Dolby Surround
    Codec ID                    : A_AC3
    Duration                    : 2 h 1 min
    Bit rate mode               : Constant
    Bit rate                    : 192 kb/s
    Channel(s)                  : 2 channels
    Channel layout              : L R
    Sampling rate               : 48.0 kHz
    Frame rate                  : 31.250 FPS (1536 SPF)
    Compression mode            : Lossy
    Stream size                 : 166 MiB (1%)
    Language                    : Spanish
    Service kind                : Complete Main
    Default                     : Yes
    Forced                      : No

    Text
    ID                          : 4
    Format                      : PGS
    Muxing mode                 : zlib
    Codec ID                    : S_HDMV/PGS
    Codec ID/Info               : Picture based subtitle format used on BDs/HD-DVDs
    Duration                    : 2 h 0 min
    Bit rate                    : 20.0 kb/s
    Count of elements           : 2174
    Stream size                 : 17.2 MiB (0%)
    Language                    : Spanish
    Default                     : No
    Forced                      : No

    Menu
    00:00:00.000                : en:Chapter 1
    00:03:43.264                : en:Chapter 2
    00:08:17.079                : en:Chapter 3
    00:12:19.363                : en:Chapter 4
    00:15:39.855                : en:Chapter 5
    00:19:20.033                : en:Chapter 6
    00:21:08.016                : en:Chapter 7
    00:23:48.885                : en:Chapter 8
    00:27:02.912                : en:Chapter 9
    00:32:51.844                : en:Chapter 10
    00:35:58.906                : en:Chapter 11
    00:39:37.583                : en:Chapter 12
    00:43:06.750                : en:Chapter 13
    00:47:29.513                : en:Chapter 14
    00:49:59.621                : en:Chapter 15
    00:53:21.156                : en:Chapter 16
    00:54:57.752                : en:Chapter 17
    00:56:36.267                : en:Chapter 18
    01:01:52.917                : en:Chapter 19
    01:05:26.047                : en:Chapter 20
    01:08:05.706                : en:Chapter 21
    01:13:52.970                : en:Chapter 22
    01:16:45.142                : en:Chapter 23
    01:22:17.390                : en:Chapter 24
    01:25:35.839                : en:Chapter 25
    01:31:43.539                : en:Chapter 26
    01:36:09.555                : en:Chapter 27
    01:37:51.365                : en:Chapter 28
    01:40:42.911                : en:Chapter 29
    01:45:08.969                : en:Chapter 30
    01:47:23.645                : en:Chapter 31
    01:50:07.350                : en:Chapter 32
    01:53:09.282                : en:Chapter 33
    01:55:19.120                : en:Chapter 34
    01:57:06.019                : en:Chapter 35

  • Peso: 23.1 GiB

Sinopsis

Un ladrón es testigo de un asesinato que involucra al Presidente de los Estados Unidos. Se ve obligado a huir, aunque tiene pruebas que podrían condenar al Presidente. Un thriller político dirigido y protagonizado por Clint Eastwood y basado en una novela de David Baldacci.

Ficha técnica

Video trailer de la película

Enlaces de descarga

Rip de Bluray

Descargar Absolute Power (1997) REMUX 1080p Latino – CMHDD


Aportes de DPeliculasHDmega la pass es:dpeliculashdmega.org Aportes de CinemaniaHD la pass es:cinemaniahdd.com
Guardado en : Acción , Crimen , Drama

Películas relacionadas

  • Zola (2020) HD 1080p Latino

    Zola (2020) HD 1080p Latino

    2020
    Zola (2020) HD 1080p Latino

    1h 26m 2020

    Descargar Zola (2020) HD 1080p Latino. Una camarera accede a acompañar a una bailarina exótica, su...

    Director: Sheri Davani

    Género: Comedia

    Actores: Ts Madison

  • Zola (2020) PLACEBO Full HD 1080p Latino

    Zola (2020) PLACEBO Full HD 1080p Latino

    2020
    Zola (2020) PLACEBO Full HD 1080p Latino

    1h 26m 2020

    Descargar Zola (2020) PLACEBO Full HD 1080p Latino. Una camarera accede a acompañar a una bailarina...

    Director: Sheri Davani

    Género: Comedia

    Actores: Ts Madison

  • Zola (2020) REMUX 1080p Latino

    Zola (2020) REMUX 1080p Latino

    2020
    Zola (2020) REMUX 1080p Latino

    1h 26m 2020

    Descargar Zola (2020) REMUX 1080p Latino. Una camarera accede a acompañar a una bailarina exótica,...

    Director: Sheri Davani

    Género: Comedia

    Actores: Ts Madison

descargar Absolute Power (1997) REMUX 1080p Latino – CMHDD Full 1080p 1080p gratis, Absolute Power (1997) REMUX 1080p Latino – CMHDD Full 1080p mega 1 link, Absolute Power (1997) REMUX 1080p Latino – CMHDD Full 1080p pelicula completa, descargar Absolute Power (1997) REMUX 1080p Latino – CMHDD Full 1080p gratis en mega.

Absolute Power (1997) REMUX 1080p Latino – CMHDD pelicula full hd, Absolute Power (1997) REMUX 1080p Latino – CMHDD mega latino, Absolute Power (1997) REMUX 1080p Latino – CMHDD 4k latino, Absolute Power (1997) REMUX 1080p Latino – CMHDD pelicula completa, Absolute Power (1997) REMUX 1080p Latino – CMHDD descargar gratis, descargar Absolute Power (1997) REMUX 1080p Latino – CMHDD pelicula latino, Absolute Power (1997) REMUX 1080p Latino – CMHDD 1 link mega, Absolute Power (1997) REMUX 1080p Latino – CMHDD 1 link google drive, Absolute Power (1997) REMUX 1080p Latino – CMHDD hd 1080p latino.