×

¿Problemas para descargar con Mozilla, EDGE? Deshabilita la opción "Abrir vinculos en una pestaña nueva" tal como lo muestra ésta imagen.

Abraham Lincoln: Cazador De Vampiros (2012) REMUX 1080p Latino

176 vistas

Información de Abraham Lincoln: Cazador De Vampiros (2012) REMUX 1080p Latino

Datos de la película

  • Calidad: Full 1080p
  • Audio: Español Latino AC3 5.1 BLURAY - Ingles DTS-HD Master 7.1 BLURAY
  • Subtitulos: Español Latino PGS - Ingles PGS
  • Resolución: 1920x1080p
  • Formato: MKV
  • Codec: H.264
  • Encoder: CinefiloCool
  • Mediainfo: Clic para Mostrar Datos Ver
  • Abraham Lincoln Cazador De Vampiros (2012) REMUX 1080p Latino-CMHDD.mkv
    Format                      : Matroska
    Format version              : Version 4
    File size                   : 23.3 GiB
    Duration                    : 1 h 45 min
    Overall bit rate mode       : Variable
    Overall bit rate            : 31.8 Mb/s
    Movie name                  : Abraham Lincoln Vampire Hunter (2012) CinemaniaHDD.Net
    Encoded date                : UTC 2021-09-30 17:05:14
    Writing application         : mkvmerge v56.1.0 ('My Friend') 64-bit
    Writing library             : libebml v1.4.2 + libmatroska v1.6.4
    Attachments                 : CINEMANIAHD.png

    Video
    ID                          : 1
    Format                      : AVC
    Format/Info                 : Advanced Video Codec
    Format profile              : High@L4.1
    Format settings             : CABAC / 4 Ref Frames
    Format settings, CABAC      : Yes
    Format settings, Reference  : 4 frames
    Codec ID                    : V_MPEG4/ISO/AVC
    Duration                    : 1 h 45 min
    Bit rate mode               : Variable
    Bit rate                    : 26.4 Mb/s
    Maximum bit rate            : 30.0 Mb/s
    Width                       : 1 920 pixels
    Height                      : 1 080 pixels
    Display aspect ratio        : 16:9
    Frame rate mode             : Constant
    Frame rate                  : 23.976 (24000/1001) FPS
    Color space                 : YUV
    Chroma subsampling          : 4:2:0
    Bit depth                   : 8 bits
    Scan type                   : Progressive
    Bits/(Pixel*Frame)          : 0.531
    Stream size                 : 19.4 GiB (83%)
    Title                       : REMUX HD1080p [CinemaniaHDD]
    Default                     : Yes
    Forced                      : Yes

    Audio #1
    ID                          : 2
    Format                      : AC-3
    Format/Info                 : Audio Coding 3
    Commercial name             : Dolby Digital
    Codec ID                    : A_AC3
    Duration                    : 1 h 45 min
    Bit rate mode               : Constant
    Bit rate                    : 448 kb/s
    Channel(s)                  : 6 channels
    Channel layout              : L R C LFE Ls Rs
    Sampling rate               : 48.0 kHz
    Frame rate                  : 31.250 FPS (1536 SPF)
    Compression mode            : Lossy
    Stream size                 : 336 MiB (1%)
    Title                       : Español Latino [CinemaniaHDD]
    Language                    : Spanish
    Service kind                : Complete Main
    Default                     : Yes
    Forced                      : Yes

    Audio #2
    ID                          : 3
    Format                      : DTS XLL
    Format/Info                 : Digital Theater Systems
    Commercial name             : DTS-HD Master Audio
    Codec ID                    : A_DTS
    Duration                    : 1 h 45 min
    Bit rate mode               : Variable
    Bit rate                    : 4 899 kb/s
    Channel(s)                  : 8 channels
    Channel layout              : C L R LFE Lb Rb Lss Rss
    Sampling rate               : 48.0 kHz
    Frame rate                  : 93.750 FPS (512 SPF)
    Bit depth                   : 24 bits
    Compression mode            : Lossless
    Stream size                 : 3.59 GiB (15%)
    Title                       : Ingles [CinemaniaHDD]
    Language                    : English
    Default                     : No
    Forced                      : No

    Text #1
    ID                          : 4
    Format                      : PGS
    Muxing mode                 : zlib
    Codec ID                    : S_HDMV/PGS
    Codec ID/Info               : Picture based subtitle format used on BDs/HD-DVDs
    Duration                    : 1 h 36 min
    Bit rate                    : 171 b/s
    Count of elements           : 12
    Stream size                 : 121 KiB (0%)
    Title                       : Forzados-PGS [CinemaniaHDD]
    Language                    : Spanish
    Default                     : No
    Forced                      : No

    Text #2
    ID                          : 5
    Format                      : PGS
    Muxing mode                 : zlib
    Codec ID                    : S_HDMV/PGS
    Codec ID/Info               : Picture based subtitle format used on BDs/HD-DVDs
    Duration                    : 1 h 44 min
    Bit rate                    : 26.1 kb/s
    Count of elements           : 2051
    Stream size                 : 19.5 MiB (0%)
    Title                       : Español-PGS [CinemaniaHDD]
    Language                    : Spanish
    Default                     : No
    Forced                      : No

    Text #3
    ID                          : 6
    Format                      : PGS
    Muxing mode                 : zlib
    Codec ID                    : S_HDMV/PGS
    Codec ID/Info               : Picture based subtitle format used on BDs/HD-DVDs
    Duration                    : 1 h 44 min
    Bit rate                    : 30.0 kb/s
    Count of elements           : 2337
    Stream size                 : 22.4 MiB (0%)
    Title                       : Ingles-PGS [CinemaniaHDD]
    Language                    : English
    Default                     : No
    Forced                      : No

    Text #4
    ID                          : 7
    Format                      : UTF-8
    Codec ID                    : S_TEXT/UTF8
    Codec ID/Info               : UTF-8 Plain Text
    Duration                    : 1 h 38 min
    Bit rate                    : 0 b/s
    Count of elements           : 18
    Stream size                 : 519 Bytes (0%)
    Title                       : Forzados-SRT [CinemaniaHDD]
    Language                    : Spanish
    Default                     : Yes
    Forced                      : Yes

    Text #5
    ID                          : 8
    Format                      : UTF-8
    Codec ID                    : S_TEXT/UTF8
    Codec ID/Info               : UTF-8 Plain Text
    Duration                    : 1 h 38 min
    Bit rate                    : 44 b/s
    Count of elements           : 1023
    Stream size                 : 32.1 KiB (0%)
    Title                       : Español-SRT [CinemaniaHDD]
    Language                    : Spanish
    Default                     : No
    Forced                      : No

    Menu
    00:00:00.000                : Chapter 1
    00:03:48.478                : Chapter 2
    00:06:52.579                : Chapter 3
    00:11:06.457                : Chapter 4
    00:15:10.535                : Chapter 5
    00:20:07.790                : Chapter 6
    00:26:46.355                : Chapter 7
    00:29:22.135                : Chapter 8
    00:34:13.009                : Chapter 9
    00:39:04.884                : Chapter 10
    00:42:42.810                : Chapter 11
    00:47:25.468                : Chapter 12
    00:52:50.918                : Chapter 13
    01:00:39.302                : Chapter 14
    01:05:16.621                : Chapter 15
    01:10:33.563                : Chapter 16
    01:13:21.939                : Chapter 17
    01:16:41.555                : Chapter 18
    01:18:46.972                : Chapter 19
    01:22:41.373                : Chapter 20
    01:25:28.123                : Chapter 21
    01:29:00.835                : Chapter 22
    01:32:23.496                : Chapter 23
    01:37:55.119                : Chapter 24

  • Peso: 23.3 GiB

Sinopsis

Descargar Abraham Lincoln: Cazador De Vampiros (2012) REMUX 1080p Latino. Indiana, 1818. La luz de la luna cae a través de los densos bosques que rodean una cabaña, donde un niño de nueve años llamado Abraham Lincoln se arrodilla junto a la cama de su madre que sufre. Ella ha sido atacada por algo que los lugareños llaman «Enfermedad de la Leche». Mi niño… susurra antes de morir. Más tarde, el niño se da cuenta de que la enfermedad mortal de su madre era en realidad obra de un vampiro. A partir de ese momento, el niño comienza un diario, y se propone ser un maestro de la mente y el cuerpo, con un sólo objetivo: Emprender un camino de venganza que le llevará a la Casa Blanca.

Disponible Solo Para VIP!!! 😀

Ficha técnica

Video trailer de la película

Enlaces de descarga

Rip de Bluray

Descargar Abraham Lincoln: Cazador De Vampiros (2012) REMUX 1080p Latino


Aportes de DPeliculasHDmega la pass es:dpeliculashdmega.org Aportes de CinemaniaHD la pass es:cinemaniahdd.com
Guardado en : Acción , Fantasía , Remux , Terror

Películas relacionadas

descargar Abraham Lincoln: Cazador De Vampiros (2012) REMUX 1080p Latino Full 1080p 1080p gratis, Abraham Lincoln: Cazador De Vampiros (2012) REMUX 1080p Latino Full 1080p mega 1 link, Abraham Lincoln: Cazador De Vampiros (2012) REMUX 1080p Latino Full 1080p pelicula completa, descargar Abraham Lincoln: Cazador De Vampiros (2012) REMUX 1080p Latino Full 1080p gratis en mega.

Abraham Lincoln: Cazador De Vampiros (2012) REMUX 1080p Latino pelicula full hd, Abraham Lincoln: Cazador De Vampiros (2012) REMUX 1080p Latino mega latino, Abraham Lincoln: Cazador De Vampiros (2012) REMUX 1080p Latino 4k latino, Abraham Lincoln: Cazador De Vampiros (2012) REMUX 1080p Latino pelicula completa, Abraham Lincoln: Cazador De Vampiros (2012) REMUX 1080p Latino descargar gratis, descargar Abraham Lincoln: Cazador De Vampiros (2012) REMUX 1080p Latino pelicula latino, Abraham Lincoln: Cazador De Vampiros (2012) REMUX 1080p Latino 1 link mega, Abraham Lincoln: Cazador De Vampiros (2012) REMUX 1080p Latino 1 link google drive, Abraham Lincoln: Cazador De Vampiros (2012) REMUX 1080p Latino hd 1080p latino.
Comentarios 0