Abraham Lincoln: Cazador De Vampiros (2012) Full HD 1080p Latino

3.266 vistas

Información de Abraham Lincoln: Cazador De Vampiros (2012) Full HD 1080p Latino

Datos de la película

  • Calidad: Full 1080p
  • Audio: Español Latino AC3 5.1 BLURAY - Ingles DTS 5.1 BLURAY
  • Subtitulos: Español Latino PGS - Ingles PGS
  • Resolución: 1920x1080p
  • Formato: MKV
  • Codec: H.264
  • Encoder: CinefiloCool | Dracarys
  • Mediainfo: Clic para Mostrar Datos Ver
  • Abraham Lincoln Cazador De Vampiros (2012) Full HD 1080p Latino-CMHDD.mkv
    Format                      : Matroska
    Format version              : Version 4
    File size                   : 5.84 GiB
    Duration                    : 1 h 45 min
    Overall bit rate            : 7 958 kb/s
    Movie name                  : Abraham Lincoln Vampire Hunter (2012) CinemaniaHDD.Net
    Encoded date                : UTC 2022-01-09 05:41:11
    Writing application         : mkvmerge v56.1.0 ('My Friend') 64-bit
    Writing library             : libebml v1.4.2 + libmatroska v1.6.4
    Attachments                 : CINEMANIAHD.png

    Video
    ID                          : 1
    Format                      : AVC
    Format/Info                 : Advanced Video Codec
    Format profile              : High@L4.1
    Format settings             : CABAC / 4 Ref Frames
    Format settings, CABAC      : Yes
    Format settings, Reference  : 4 frames
    Codec ID                    : V_MPEG4/ISO/AVC
    Duration                    : 1 h 45 min
    Bit rate                    : 5 982 kb/s
    Width                       : 1 920 pixels
    Height                      : 1 080 pixels
    Display aspect ratio        : 16:9
    Frame rate mode             : Constant
    Frame rate                  : 23.976 (24000/1001) FPS
    Color space                 : YUV
    Chroma subsampling          : 4:2:0
    Bit depth                   : 8 bits
    Scan type                   : Progressive
    Bits/(Pixel*Frame)          : 0.120
    Stream size                 : 4.39 GiB (75%)
    Title                       : Full HD1080p [CinemaniaHDD]
    Writing library             : x264 core 163 r3059 b684ebe0
    Encoding settings           : cabac=1 / ref=4 / deblock=1:0:0 / analyse=0x3:0x133 / me=tesa / subme=11 / psy=1 / psy_rd=1.00:0.00 / mixed_ref=1 / me_range=24 / chroma_me=1 / trellis=2 / 8x8dct=1 / cqm=0 / deadzone=21,11 / fast_pskip=0 / chroma_qp_offset=-2 / threads=24 / lookahead_threads=6 / sliced_threads=0 / nr=0 / decimate=1 / interlaced=0 / bluray_compat=0 / constrained_intra=0 / bframes=16 / b_pyramid=2 / b_adapt=2 / b_bias=0 / direct=3 / weightb=1 / open_gop=0 / weightp=2 / keyint=240 / keyint_min=24 / scenecut=40 / intra_refresh=0 / rc_lookahead=60 / rc=crf / mbtree=1 / crf=19.0 / qcomp=0.60 / qpmin=0 / qpmax=69 / qpstep=4 / vbv_maxrate=62500 / vbv_bufsize=78125 / crf_max=0.0 / nal_hrd=none / filler=0 / ip_ratio=1.40 / aq=1:1.00
    Default                     : Yes
    Forced                      : Yes
    Color range                 : Limited
    Color primaries             : BT.709
    Transfer characteristics    : BT.709
    Matrix coefficients         : BT.709

    Audio #1
    ID                          : 2
    Format                      : AC-3
    Format/Info                 : Audio Coding 3
    Commercial name             : Dolby Digital
    Codec ID                    : A_AC3
    Duration                    : 1 h 45 min
    Bit rate mode               : Constant
    Bit rate                    : 448 kb/s
    Channel(s)                  : 6 channels
    Channel layout              : L R C LFE Ls Rs
    Sampling rate               : 48.0 kHz
    Frame rate                  : 31.250 FPS (1536 SPF)
    Compression mode            : Lossy
    Stream size                 : 336 MiB (6%)
    Title                       : Español Latino [CinemaniaHDD]
    Language                    : Spanish
    Service kind                : Complete Main
    Default                     : Yes
    Forced                      : Yes

    Audio #2
    ID                          : 3
    Format                      : DTS
    Format/Info                 : Digital Theater Systems
    Codec ID                    : A_DTS
    Duration                    : 1 h 45 min
    Bit rate mode               : Constant
    Bit rate                    : 1 509 kb/s
    Channel(s)                  : 6 channels
    Channel layout              : C L R Ls Rs LFE
    Sampling rate               : 48.0 kHz
    Frame rate                  : 93.750 FPS (512 SPF)
    Bit depth                   : 24 bits
    Compression mode            : Lossy
    Stream size                 : 1.11 GiB (19%)
    Title                       : Ingles [CinemaniaHDD]
    Language                    : English
    Default                     : No
    Forced                      : No

    Text #1
    ID                          : 4
    Format                      : PGS
    Muxing mode                 : zlib
    Codec ID                    : S_HDMV/PGS
    Codec ID/Info               : Picture based subtitle format used on BDs/HD-DVDs
    Duration                    : 1 h 36 min
    Bit rate                    : 171 b/s
    Count of elements           : 12
    Stream size                 : 121 KiB (0%)
    Title                       : Forzados-PGS [CinemaniaHDD]
    Language                    : Spanish
    Default                     : No
    Forced                      : No

    Text #2
    ID                          : 5
    Format                      : PGS
    Muxing mode                 : zlib
    Codec ID                    : S_HDMV/PGS
    Codec ID/Info               : Picture based subtitle format used on BDs/HD-DVDs
    Duration                    : 1 h 44 min
    Bit rate                    : 26.1 kb/s
    Count of elements           : 2051
    Stream size                 : 19.5 MiB (0%)
    Title                       : Español-PGS [CinemaniaHDD]
    Language                    : Spanish
    Default                     : No
    Forced                      : No

    Text #3
    ID                          : 6
    Format                      : PGS
    Muxing mode                 : zlib
    Codec ID                    : S_HDMV/PGS
    Codec ID/Info               : Picture based subtitle format used on BDs/HD-DVDs
    Duration                    : 1 h 44 min
    Bit rate                    : 30.0 kb/s
    Count of elements           : 2337
    Stream size                 : 22.4 MiB (0%)
    Title                       : Ingles-PGS [CinemaniaHDD]
    Language                    : English
    Default                     : No
    Forced                      : No

    Text #4
    ID                          : 7
    Format                      : UTF-8
    Codec ID                    : S_TEXT/UTF8
    Codec ID/Info               : UTF-8 Plain Text
    Duration                    : 1 h 38 min
    Bit rate                    : 0 b/s
    Count of elements           : 18
    Stream size                 : 519 Bytes (0%)
    Title                       : Forzados-SRT [CinemaniaHDD]
    Language                    : Spanish
    Default                     : Yes
    Forced                      : Yes

    Text #5
    ID                          : 8
    Format                      : UTF-8
    Codec ID                    : S_TEXT/UTF8
    Codec ID/Info               : UTF-8 Plain Text
    Duration                    : 1 h 38 min
    Bit rate                    : 44 b/s
    Count of elements           : 1023
    Stream size                 : 32.1 KiB (0%)
    Title                       : Español-SRT [CinemaniaHDD]
    Language                    : Spanish
    Default                     : No
    Forced                      : No

    Menu
    00:00:00.000                : Chapter 1
    00:03:48.478                : Chapter 2
    00:06:52.579                : Chapter 3
    00:11:06.457                : Chapter 4
    00:15:10.535                : Chapter 5
    00:20:07.790                : Chapter 6
    00:26:46.355                : Chapter 7
    00:29:22.135                : Chapter 8
    00:34:13.009                : Chapter 9
    00:39:04.884                : Chapter 10
    00:42:42.810                : Chapter 11
    00:47:25.468                : Chapter 12
    00:52:50.918                : Chapter 13
    01:00:39.302                : Chapter 14
    01:05:16.621                : Chapter 15
    01:10:33.563                : Chapter 16
    01:13:21.939                : Chapter 17
    01:16:41.555                : Chapter 18
    01:18:46.972                : Chapter 19
    01:22:41.373                : Chapter 20
    01:25:28.123                : Chapter 21
    01:29:00.835                : Chapter 22
    01:32:23.496                : Chapter 23
    01:37:55.119                : Chapter 24

  • Peso: 5.84 GiB

Sinopsis

Descargar Abraham Lincoln: Cazador De Vampiros (2012) Full HD 1080p Latino. Indiana, 1818. La luz de la luna cae a través de los densos bosques que rodean una cabaña, donde un niño de nueve años llamado Abraham Lincoln se arrodilla junto a la cama de su madre que sufre. Ella ha sido atacada por algo que los lugareños llaman «Enfermedad de la Leche». Mi niño… susurra antes de morir. Más tarde, el niño se da cuenta de que la enfermedad mortal de su madre era en realidad obra de un vampiro. A partir de ese momento, el niño comienza un diario, y se propone ser un maestro de la mente y el cuerpo, con un sólo objetivo: Emprender un camino de venganza que le llevará a la Casa Blanca.

RESUBIDO NUEVO RIP PLACEBO!!!

Ficha técnica

Video trailer de la película

Enlaces de descarga

Rip de Bluray

Descargar Abraham Lincoln: Cazador De Vampiros (2012) Full HD 1080p Latino




Aportes de DPeliculasHDmega la pass es:dpeliculashdmega.org Aportes de CinemaniaHD la pass es:cinemaniahdd.com

Películas relacionadas

  • Ghostbusters: El Legado (2021) HD 1080p Latino

    Ghostbusters: El Legado (2021) HD 1080p Latino

    2021
    Ghostbusters: El Legado (2021) HD 1080p Latino

    2h 4m 2021

    Descargar Ghostbusters: El Legado (2021) HD 1080p Latino. Una madre soltera y sus dos hijos se van a...

    Director: Jason Reitman

    Género: Aventura

    Actores: Tracy Letts

  • Eternals (2021) HD 1080p Latino

    Eternals (2021) HD 1080p Latino

    2021
    Eternals (2021) HD 1080p Latino

    2h 36m 2021

    Descargar Eternals (2021) HD 1080p Latino. Hace millones de años, los seres cósmicos conocidos como...

    Director: Simon Warnock

    Género: Acción

    Actores: Zain Al Rafeea

  • Eternals (2021) PLACEBO Full HD 1080p Latino

    Eternals (2021) PLACEBO Full HD 1080p Latino

    2021
    Eternals (2021) PLACEBO Full HD 1080p Latino

    2h 36m 2021

    Descargar Eternals (2021) PLACEBO Full HD 1080p Latino. Hace millones de años, los seres cósmicos conocidos...

    Director: Simon Warnock

    Género: Acción

    Actores: Zain Al Rafeea

  • Eternals (2021) REMUX 1080p Latino

    Eternals (2021) REMUX 1080p Latino

    2021
    Eternals (2021) REMUX 1080p Latino

    2h 36m 2021

    Descargar Eternals (2021) REMUX 1080p Latino. Hace millones de años, los seres cósmicos conocidos como...

    Director: Simon Warnock

    Género: Acción

    Actores: Zain Al Rafeea

  • Atrapada En El Fondo Del Mar (2020) HD 1080p Latino

    Atrapada En El Fondo Del Mar (2020) HD 1080p Latino

    2020
    Atrapada En El Fondo Del Mar (2020) HD 1080p Latino

    1h 22m 2020

    Descargar Atrapada En El Fondo Del Mar (2020) HD 1080p Latino. Las hermanastras Ida y Tuva sufren un...

    Director: Joachim Hedén

    Género: Acción

    Actores: Trine Wiggen

Abraham Lincoln: Cazador De Vampiros (2012) Full HD 1080p Latino pelicula full hd, Abraham Lincoln: Cazador De Vampiros (2012) Full HD 1080p Latino mega latino, Abraham Lincoln: Cazador De Vampiros (2012) Full HD 1080p Latino 4k latino, Abraham Lincoln: Cazador De Vampiros (2012) Full HD 1080p Latino pelicula completa, Abraham Lincoln: Cazador De Vampiros (2012) Full HD 1080p Latino descargar gratis, descargar Abraham Lincoln: Cazador De Vampiros (2012) Full HD 1080p Latino pelicula latino, Abraham Lincoln: Cazador De Vampiros (2012) Full HD 1080p Latino 1 link mega, Abraham Lincoln: Cazador De Vampiros (2012) Full HD 1080p Latino 1 link google drive, Abraham Lincoln: Cazador De Vampiros (2012) Full HD 1080p Latino hd 1080p latino.
Comentarios 2
  • gonz - 03 julio, 2018

    hola
    estoy tratando de bajar peliculas en MEga pero no funciona, en las que he probado me dice: el enlace al q estas tratando de accesar no es valido

    saludos!

    • dpelis - 05 julio, 2018

      debe bajar con mipony amigo oh jdwonloader