×

¿Problemas para descargar con Mozilla, EDGE? Deshabilita la opción "Abrir vinculos en una pestaña nueva" tal como lo muestra ésta imagen.

Abracadabra 2 (2022) D+ WEB-DL 4K UHD HDR Latino

83 vistas

Información de Abracadabra 2 (2022) D+ WEB-DL 4K UHD HDR Latino

Datos de la película

  • Calidad: WEBDL
  • Audio: Se especifica abajo de la Sinopsis
  • Subtitulos: Español Latino SRT- FORZADOS SRT
  • Resolución: 3840x2160p
  • Formato: MKV
  • Codec: HEVC
  • Encoder: Melkor
  • Mediainfo: Clic para Mostrar Datos Ver
  • Abracadabra 2 (2022) D+ WEB UHD HDR Latino.mkv
    Format                      : Matroska
    Format version              : Version 4
    File size                   : 10.6 GiB
    Duration                    : 1 h 43 min
    Overall bit rate            : 14.6 Mb/s
    Movie name                  : Hocus Pocus 2 (2022) CinemaniaHDD.Net
    Encoded date                : UTC 2022-09-30 16:02:39
    Writing application         : mkvmerge v56.1.0 ('My Friend') 64-bit
    Writing library             : libebml v1.4.2 + libmatroska v1.6.4
    Attachments                 : CINEMANIAHD.png

    Video
    ID                          : 1
    Format                      : HEVC
    Format/Info                 : High Efficiency Video Coding
    Format profile              : Main 10@L5@High
    HDR format                  : SMPTE ST 2086, HDR10 compatible
    Codec ID                    : V_MPEGH/ISO/HEVC
    Duration                    : 1 h 43 min
    Bit rate                    : 13.1 Mb/s
    Width                       : 3 840 pixels
    Height                      : 2 160 pixels
    Display aspect ratio        : 16:9
    Frame rate mode             : Constant
    Frame rate                  : 24.000 FPS
    Color space                 : YUV
    Chroma subsampling          : 4:2:0
    Bit depth                   : 10 bits
    Bits/(Pixel*Frame)          : 0.066
    Stream size                 : 9.50 GiB (90%)
    Title                       : Web 2160p HDR [CinemaniaHDD]
    Language                    : English
    Default                     : Yes
    Forced                      : No
    Color range                 : Limited
    Color primaries             : BT.2020
    Transfer characteristics    : PQ
    Matrix coefficients         : BT.2020 non-constant
    Mastering display color pri : BT.2020
    Mastering display luminance : min: 0.0001 cd/m2, max: 1000 cd/m2

    Audio #1
    ID                          : 2
    Format                      : AC-3
    Format/Info                 : Audio Coding 3
    Commercial name             : Dolby Digital
    Codec ID                    : A_AC3
    Duration                    : 1 h 43 min
    Bit rate mode               : Constant
    Bit rate                    : 448 kb/s
    Channel(s)                  : 6 channels
    Channel layout              : L R C LFE Ls Rs
    Sampling rate               : 48.0 kHz
    Frame rate                  : 31.250 FPS (1536 SPF)
    Compression mode            : Lossy
    Stream size                 : 332 MiB (3%)
    Title                       : Español Latino AC3 [CinemaniaHDD]
    Language                    : Spanish
    Service kind                : Complete Main
    Default                     : Yes
    Forced                      : Yes

    Audio #2
    ID                          : 3
    Format                      : E-AC-3
    Format/Info                 : Enhanced AC-3
    Commercial name             : Dolby Digital Plus
    Codec ID                    : A_EAC3
    Duration                    : 1 h 43 min
    Bit rate mode               : Constant
    Bit rate                    : 256 kb/s
    Channel(s)                  : 6 channels
    Channel layout              : L R C LFE Ls Rs
    Sampling rate               : 48.0 kHz
    Frame rate                  : 31.250 FPS (1536 SPF)
    Compression mode            : Lossy
    Stream size                 : 190 MiB (2%)
    Title                       : Español Latino EAC3 [CinemaniaHDD]
    Language                    : Spanish
    Service kind                : Complete Main
    Default                     : No
    Forced                      : No

    Audio #3
    ID                          : 4
    Format                      : E-AC-3 JOC
    Format/Info                 : Enhanced AC-3 with Joint Object Coding
    Commercial name             : Dolby Digital Plus with Dolby Atmos
    Codec ID                    : A_EAC3
    Duration                    : 1 h 43 min
    Bit rate mode               : Constant
    Bit rate                    : 768 kb/s
    Channel(s)                  : 6 channels
    Channel layout              : L R C LFE Ls Rs
    Sampling rate               : 48.0 kHz
    Frame rate                  : 31.250 FPS (1536 SPF)
    Compression mode            : Lossy
    Stream size                 : 569 MiB (5%)
    Title                       : Ingles [CinemaniaHDD]
    Language                    : English
    Service kind                : Complete Main
    Default                     : No
    Forced                      : No
    Complexity index            : 16
    Number of dynamic objects   : 15
    Bed channel count           : 1 channel
    Bed channel configuration   : LFE

    Text #1
    ID                          : 5
    Format                      : UTF-8
    Codec ID                    : S_TEXT/UTF8
    Codec ID/Info               : UTF-8 Plain Text
    Duration                    : 1 h 41 min
    Bit rate                    : 0 b/s
    Count of elements           : 10
    Stream size                 : 210 Bytes (0%)
    Title                       : Forzados-SRT [CinemaniaHDD]
    Language                    : Spanish
    Default                     : Yes
    Forced                      : Yes

    Text #2
    ID                          : 6
    Format                      : UTF-8
    Codec ID                    : S_TEXT/UTF8
    Codec ID/Info               : UTF-8 Plain Text
    Duration                    : 1 h 42 min
    Bit rate                    : 69 b/s
    Count of elements           : 1723
    Stream size                 : 52.4 KiB (0%)
    Title                       : Español-SRT [CinemaniaHDD]
    Language                    : Spanish
    Default                     : No
    Forced                      : No

    Text #3
    ID                          : 7
    Format                      : UTF-8
    Codec ID                    : S_TEXT/UTF8
    Codec ID/Info               : UTF-8 Plain Text
    Duration                    : 1 h 35 min
    Bit rate                    : 94 b/s
    Count of elements           : 2063
    Stream size                 : 65.8 KiB (0%)
    Title                       : Ingles-SRT [CinemaniaHDD]
    Language                    : English
    Default                     : No
    Forced                      : No

  • Peso: 10.6 GiB

Sinopsis

Descargar Abracadabra 2 (2022) D+ WEB-DL 4K UHD HDR Latino. Han pasado 29 años desde que alguien encendió la Vela de la Llama Negra y resucitó a las hermanas Sanderson del siglo XVII, y ahora buscan venganza. De tres estudiantes de secundaria depende impedir que las voraces brujas causen un nuevo tipo de estrago en Salem antes del amanecer el día de Halloween.

Español Latino EAC3 & AC3 5.1 D+ – Ingles EAC3 JOC 5.1 D+

Ficha técnica

Video trailer de la película

Enlaces de descarga

Rip de Bluray

Descargar Abracadabra 2 (2022) D+ WEB-DL 4K UHD HDR Latino




Aportes de DPeliculasHDmega la pass es:dpeliculashdmega.org Aportes de CinemaniaHD la pass es:cinemaniahdd.com
Guardado en : 4K HDR , 4K UHD , Comedia , Familia , Fantasía

Películas relacionadas

descargar Abracadabra 2 (2022) D+ WEB-DL 4K UHD HDR Latino WEBDL 1080p gratis, Abracadabra 2 (2022) D+ WEB-DL 4K UHD HDR Latino WEBDL mega 1 link, Abracadabra 2 (2022) D+ WEB-DL 4K UHD HDR Latino WEBDL pelicula completa, descargar Abracadabra 2 (2022) D+ WEB-DL 4K UHD HDR Latino WEBDL gratis en mega.

Abracadabra 2 (2022) D+ WEB-DL 4K UHD HDR Latino pelicula full hd, Abracadabra 2 (2022) D+ WEB-DL 4K UHD HDR Latino mega latino, Abracadabra 2 (2022) D+ WEB-DL 4K UHD HDR Latino 4k latino, Abracadabra 2 (2022) D+ WEB-DL 4K UHD HDR Latino pelicula completa, Abracadabra 2 (2022) D+ WEB-DL 4K UHD HDR Latino descargar gratis, descargar Abracadabra 2 (2022) D+ WEB-DL 4K UHD HDR Latino pelicula latino, Abracadabra 2 (2022) D+ WEB-DL 4K UHD HDR Latino 1 link mega, Abracadabra 2 (2022) D+ WEB-DL 4K UHD HDR Latino 1 link google drive, Abracadabra 2 (2022) D+ WEB-DL 4K UHD HDR Latino hd 1080p latino.
Comentarios 0