×

¿Problemas para descargar con Mozilla, EDGE? Deshabilita la opción "Abrir vinculos en una pestaña nueva" tal como lo muestra ésta imagen.

About Schmidt (2002) REMUX 1080p Latino – CMHDD

237 vistas

Información de About Schmidt (2002) REMUX 1080p Latino – CMHDD

Datos de la película

  • Calidad: Full 1080p
  • Audio: Español Latino AC3 2.0 BLURAY - Ingles DTS 5.1 BLURAY
  • Subtitulos: Español Latino PGS
  • Resolución: 1920x1080p
  • Formato: MKV
  • Codec: H.264
  • Encoder: Dracarys
  • Mediainfo: Clic para Mostrar Datos Ver
  • Format                      : Matroska
    Format version              : Version 4
    File size                   : 25.1 GiB
    Duration                    : 2 h 5 min
    Overall bit rate mode       : Variable
    Overall bit rate            : 28.6 Mb/s
    Movie name                  : About Schmidt (2002) REMUX 1080p Latino - CMHDD
    Encoded date                : UTC 2022-01-30 17:37:11
    Writing application         : mkvmerge v17.0.0 ('Be Ur Friend') 64-bit
    Writing library             : libebml v1.3.5 + libmatroska v1.4.8

    Video
    ID                          : 1
    Format                      : AVC
    Format/Info                 : Advanced Video Codec
    Format profile              : High@L4.1
    Format settings             : CABAC / 2 Ref Frames
    Format settings, CABAC      : Yes
    Format settings, Reference  : 2 frames
    Format settings, GOP        : M=1, N=10
    Codec ID                    : V_MPEG4/ISO/AVC
    Duration                    : 2 h 5 min
    Bit rate mode               : Variable
    Bit rate                    : 24.8 Mb/s
    Width                       : 1 920 pixels
    Height                      : 1 080 pixels
    Display aspect ratio        : 16:9
    Frame rate mode             : Constant
    Frame rate                  : 23.976 (24000/1001) FPS
    Color space                 : YUV
    Chroma subsampling          : 4:2:0
    Bit depth                   : 8 bits
    Scan type                   : Progressive
    Bits/(Pixel*Frame)          : 0.499
    Stream size                 : 21.7 GiB (87%)
    Default                     : Yes
    Forced                      : No

    Audio #1
    ID                          : 2
    Format                      : DTS XLL
    Format/Info                 : Digital Theater Systems
    Commercial name             : DTS-HD Master Audio
    Codec ID                    : A_DTS
    Duration                    : 2 h 5 min
    Bit rate mode               : Variable
    Bit rate                    : 3 596 kb/s
    Channel(s)                  : 6 channels
    Channel layout              : C L R Ls Rs LFE
    Sampling rate               : 48.0 kHz
    Frame rate                  : 93.750 FPS (512 SPF)
    Bit depth                   : 24 bits
    Compression mode            : Lossless
    Stream size                 : 3.15 GiB (13%)
    Language                    : English
    Default                     : No
    Forced                      : No

    Audio #2
    ID                          : 3
    Format                      : AC-3
    Format/Info                 : Audio Coding 3
    Commercial name             : Dolby Digital
    Format settings             : Dolby Surround
    Codec ID                    : A_AC3
    Duration                    : 2 h 5 min
    Bit rate mode               : Constant
    Bit rate                    : 192 kb/s
    Channel(s)                  : 2 channels
    Channel layout              : L R
    Sampling rate               : 48.0 kHz
    Frame rate                  : 31.250 FPS (1536 SPF)
    Compression mode            : Lossy
    Stream size                 : 172 MiB (1%)
    Language                    : Spanish
    Service kind                : Complete Main
    Default                     : Yes
    Forced                      : No

    Text
    ID                          : 4
    Format                      : PGS
    Muxing mode                 : zlib
    Codec ID                    : S_HDMV/PGS
    Codec ID/Info               : Picture based subtitle format used on BDs/HD-DVDs
    Duration                    : 2 h 3 min
    Bit rate                    : 28.5 kb/s
    Count of elements           : 2844
    Stream size                 : 25.1 MiB (0%)
    Language                    : Spanish
    Default                     : No
    Forced                      : No

    Menu
    00:00:00.000                : en:Chapter 1
    00:10:21.621                : en:Chapter 2
    00:19:56.195                : en:Chapter 3
    00:29:35.774                : en:Chapter 4
    00:40:05.986                : en:Chapter 5
    00:50:13.760                : en:Chapter 6
    01:00:49.228                : en:Chapter 7
    01:10:38.817                : en:Chapter 8
    01:19:10.954                : en:Chapter 9
    01:31:14.719                : en:Chapter 10
    01:39:11.487                : en:Chapter 11
    01:53:50.323                : en:Chapter 12
    02:00:21.047                : en:Chapter 13

  • Peso: 25.1 GiB

Sinopsis

La odisea personal de Schmidt comienza cuando su esposa muere inesperadamente. Días después, revisando los objetos personales de su mujer, descubre unas cartas que demuestran que hace veinticinco años tuvo una aventura con su mejor amigo. Destrozado, Schmidt decide adelantar su viaje a Denver, donde se casa su hija. Entonces comienza una odisea llena de encuentros, sorpresas, situaciones cómicas y también agridulces. Al igual que su vida, es un viaje lleno de frustraciones, rechazos, humillaciones y fracasos. Schmidt se da cuenta de que nunca ha hecho nada destacado en la vida, ni tampoco ha hecho nada por mejorar la vida de los demás… hasta que recibe una carta del pequeño Ngudu Ubu.

Ficha técnica

Video trailer de la película

Enlaces de descarga

Rip de Bluray

Descargar About Schmidt (2002) REMUX 1080p Latino – CMHDD


Aportes de DPeliculasHDmega la pass es:dpeliculashdmega.org Aportes de CinemaniaHD la pass es:cinemaniahdd.com
Guardado en : Comedia , Drama

Películas relacionadas

descargar About Schmidt (2002) REMUX 1080p Latino – CMHDD Full 1080p 1080p gratis, About Schmidt (2002) REMUX 1080p Latino – CMHDD Full 1080p mega 1 link, About Schmidt (2002) REMUX 1080p Latino – CMHDD Full 1080p pelicula completa, descargar About Schmidt (2002) REMUX 1080p Latino – CMHDD Full 1080p gratis en mega.

About Schmidt (2002) REMUX 1080p Latino – CMHDD pelicula full hd, About Schmidt (2002) REMUX 1080p Latino – CMHDD mega latino, About Schmidt (2002) REMUX 1080p Latino – CMHDD 4k latino, About Schmidt (2002) REMUX 1080p Latino – CMHDD pelicula completa, About Schmidt (2002) REMUX 1080p Latino – CMHDD descargar gratis, descargar About Schmidt (2002) REMUX 1080p Latino – CMHDD pelicula latino, About Schmidt (2002) REMUX 1080p Latino – CMHDD 1 link mega, About Schmidt (2002) REMUX 1080p Latino – CMHDD 1 link google drive, About Schmidt (2002) REMUX 1080p Latino – CMHDD hd 1080p latino.
Comentarios 0