×

¿Problemas para descargar con Mozilla, EDGE? Deshabilita la opción "Abrir vinculos en una pestaña nueva" tal como lo muestra ésta imagen.

Abominable (2019) 1080p Latino

1.482 vistas

Información de Abominable (2019) 1080p Latino

Datos de la película

  • Calidad: 1080p
  • Audio: Español Latino AC3 5.1 BLURAY - Ingles AC3 5.1 BLURAY
  • Subtitulos: Español Latino SRT- FORZADOS SRT
  • Resolución: 1920x1080
  • Formato: MKV
  • Codec: H.264
  • Encoder: cinemaniahdd
  • Mediainfo: Clic para Mostrar Datos Ver
  • Abominable (2019) 1080p Latino.mkv
    Format                      : Matroska
    Format version              : Version 4
    File size                   : 2.97 GiB
    Duration                    : 1 h 37 min
    Overall bit rate            : 4 368 kb/s
    Movie name                  : Abominable (2019) - CinemaniaHDD.Net
    Encoded date                : UTC 2019-12-06 01:45:36
    Writing application         : mkvmerge v38.0.0 ('The Silent Type') 64-bit
    Writing library             : libebml v1.3.9 + libmatroska v1.5.2

    Video
    ID                          : 1
    Format                      : AVC
    Format/Info                 : Advanced Video Codec
    Format profile              : Main@L4
    Format settings             : CABAC / 4 Ref Frames
    Format settings, CABAC      : Yes
    Format settings, ReFrames   : 4 frames
    Codec ID                    : V_MPEG4/ISO/AVC
    Duration                    : 1 h 37 min
    Bit rate                    : 3 500 kb/s
    Width                       : 1 920 pixels
    Height                      : 1 038 pixels
    Display aspect ratio        : 1.85:1
    Frame rate mode             : Constant
    Frame rate                  : 23.976 (24000/1001) FPS
    Color space                 : YUV
    Chroma subsampling          : 4:2:0
    Bit depth                   : 8 bits
    Scan type                   : Progressive
    Bits/(Pixel*Frame)          : 0.073
    Stream size                 : 2.36 GiB (79%)
    Title                       : CinemaniaHDD
    Writing library             : x264 core 157 r2935 545de2f
    Encoding settings           : cabac=1 / ref=3 / deblock=1:0:0 / analyse=0x1:0x111 / me=hex / subme=7 / psy=1 / psy_rd=1.00:0.00 / mixed_ref=1 / me_range=16 / chroma_me=1 / trellis=1 / 8x8dct=0 / cqm=0 / deadzone=21,11 / fast_pskip=1 / chroma_qp_offset=-2 / threads=32 / lookahead_threads=5 / sliced_threads=0 / nr=0 / decimate=1 / interlaced=0 / bluray_compat=0 / constrained_intra=0 / bframes=3 / b_pyramid=2 / b_adapt=1 / b_bias=0 / direct=1 / weightb=1 / open_gop=0 / weightp=2 / keyint=240 / keyint_min=24 / scenecut=40 / intra_refresh=0 / rc_lookahead=40 / rc=abr / mbtree=1 / bitrate=3500 / ratetol=1.0 / qcomp=0.60 / qpmin=0 / qpmax=69 / qpstep=4 / vbv_maxrate=20000 / vbv_bufsize=25000 / nal_hrd=none / filler=0 / ip_ratio=1.40 / aq=1:1.00
    Default                     : Yes
    Forced                      : No
    Color range                 : Limited
    Color primaries             : BT.709
    Transfer characteristics    : BT.709
    Matrix coefficients         : BT.709

    Audio #1
    ID                          : 2
    Format                      : AC-3
    Format/Info                 : Audio Coding 3
    Commercial name             : Dolby Digital
    Codec ID                    : A_AC3
    Duration                    : 1 h 37 min
    Bit rate mode               : Constant
    Bit rate                    : 448 kb/s
    Channel(s)                  : 6 channels
    Channel layout              : L R C LFE Ls Rs
    Sampling rate               : 48.0 kHz
    Frame rate                  : 31.250 FPS (1536 SPF)
    Bit depth                   : 16 bits
    Compression mode            : Lossy
    Delay relative to video     : -1 s 1 ms
    Stream size                 : 312 MiB (10%)
    Title                       : Español latino [CinemaniaHDD]
    Language                    : Spanish
    Service kind                : Complete Main
    Default                     : Yes
    Forced                      : No

    Audio #2
    ID                          : 3
    Format                      : AC-3
    Format/Info                 : Audio Coding 3
    Commercial name             : Dolby Digital
    Codec ID                    : A_AC3
    Duration                    : 1 h 37 min
    Bit rate mode               : Constant
    Bit rate                    : 448 kb/s
    Channel(s)                  : 6 channels
    Channel layout              : L R C LFE Ls Rs
    Sampling rate               : 48.0 kHz
    Frame rate                  : 31.250 FPS (1536 SPF)
    Bit depth                   : 16 bits
    Compression mode            : Lossy
    Delay relative to video     : -1 s 6 ms
    Stream size                 : 312 MiB (10%)
    Title                       : Inglés [CinemaniaHDD]
    Language                    : English
    Service kind                : Complete Main
    Default                     : No
    Forced                      : No

    Text #1
    ID                          : 4
    Format                      : UTF-8
    Codec ID                    : S_TEXT/UTF8
    Codec ID/Info               : UTF-8 Plain Text
    Duration                    : 20 min 5 s
    Bit rate                    : 0 b/s
    Count of elements           : 4
    Stream size                 : 89.0 Bytes (0%)
    Title                       : Forzados [CinemaniaHDD]
    Language                    : Spanish
    Default                     : Yes
    Forced                      : Yes

    Text #2
    ID                          : 5
    Format                      : UTF-8
    Codec ID                    : S_TEXT/UTF8
    Codec ID/Info               : UTF-8 Plain Text
    Duration                    : 1 h 25 min
    Bit rate                    : 44 b/s
    Count of elements           : 1076
    Stream size                 : 27.5 KiB (0%)
    Title                       : Español latino [CinemaniaHDD]
    Language                    : Spanish
    Default                     : No
    Forced                      : No

    Menu
    00:00:01.001                : :Chapter 1
    00:04:11.877                : :Chapter 2
    00:09:10.925                : :Chapter 3
    00:13:42.322                : :Chapter 4
    00:16:13.598                : :Chapter 5
    00:21:34.794                : :Chapter 6
    00:25:02.501                : :Chapter 7
    00:29:30.519                : :Chapter 8
    00:33:57.536                : :Chapter 9
    00:36:43.827                : :Chapter 10
    00:41:53.011                : :Chapter 11
    00:46:30.746                : :Chapter 12
    00:50:42.414                : :Chapter 13
    00:56:31.638                : :Chapter 14
    01:01:40.572                : :Chapter 15
    01:06:33.239                : :Chapter 16
    01:11:44.550                : :Chapter 17
    01:15:26.397                : :Chapter 18
    01:20:41.587                : :Chapter 19
    01:26:44.449                : :Chapter 20

     

  • Peso: 3.1 GiB

Sinopsis

Yi es una adolescente más en la enorme ciudad de Shanghai. Un día, se encuentra a un joven yeti en la azotea de su edificio. La supuestamente “abominable” criatura, que se ha escapado del laboratorio donde estaba encerrado, está siendo buscada por toda la ciudad. Junto con sus ingeniosos amigos Jin y Peng, Yi decide ayudarle a huir, le bautizan como “Everest” y los cuatro se embarcan en una épica aventura para reunir a la mítica criatura con su familia en el pico más alto del mundo.

Ficha técnica

Video trailer de la película

Enlaces de descarga

Rip de Bluray

Descargar Abominable (2019) 1080p Latino




Aportes de DPeliculasHDmega la pass es:dpeliculashdmega.org Aportes de CinemaniaHD la pass es:cinemaniahdd.com
Guardado en : Animación , Aventura , Comedia , Familia , HD 1080p

Películas relacionadas

descargar Abominable (2019) 1080p Latino 1080p 1080p gratis, Abominable (2019) 1080p Latino 1080p mega 1 link, Abominable (2019) 1080p Latino 1080p pelicula completa, descargar Abominable (2019) 1080p Latino 1080p gratis en mega.

Abominable (2019) 1080p Latino pelicula full hd, Abominable (2019) 1080p Latino mega latino, Abominable (2019) 1080p Latino 4k latino, Abominable (2019) 1080p Latino pelicula completa, Abominable (2019) 1080p Latino descargar gratis, descargar Abominable (2019) 1080p Latino pelicula latino, Abominable (2019) 1080p Latino 1 link mega, Abominable (2019) 1080p Latino 1 link google drive, Abominable (2019) 1080p Latino hd 1080p latino.
Comentarios 0