×

¿Problemas para descargar con Mozilla, EDGE? Deshabilita la opción "Abrir vinculos en una pestaña nueva" tal como lo muestra ésta imagen.

Abigail y la ciudad perdida (2019) 1080p Latino

1.853 vistas

Información de Abigail y la ciudad perdida (2019) 1080p Latino

Datos de la película

  • Calidad: WEBDL
  • Audio: Español Latino AC3 2.0 Capturado - Ingles AC3 5.1 BLURAY
  • Subtitulos: No
  • Resolución: 1920x808
  • Formato: MKV
  • Codec: H.264
  • Encoder: cinemaniahdd
  • Mediainfo: Clic para Mostrar Datos Ver
  • Abigail (2019) 1080p Latino.mkv
    Format                      : Matroska
    Format version              : Version 4
    File size                   : 3.06 GiB
    Duration                    : 1 h 46 min
    Overall bit rate            : 4 126 kb/s
    Movie name                  : Abigail (2019) - CinemaniaHDD.Net
    Encoded date                : UTC 2020-01-19 00:21:04
    Writing application         : mkvmerge v38.0.0 ('The Silent Type') 64-bit
    Writing library             : libebml v1.3.9 + libmatroska v1.5.2

    Video
    ID                          : 1
    Format                      : AVC
    Format/Info                 : Advanced Video Codec
    Format profile              : High@L4.1
    Format settings             : CABAC / 5 Ref Frames
    Format settings, CABAC      : Yes
    Format settings, ReFrames   : 5 frames
    Codec ID                    : V_MPEG4/ISO/AVC
    Duration                    : 1 h 46 min
    Bit rate                    : 3 500 kb/s
    Width                       : 1 920 pixels
    Height                      : 808 pixels
    Display aspect ratio        : 2.40:1
    Frame rate mode             : Constant
    Frame rate                  : 25.000 FPS
    Color space                 : YUV
    Chroma subsampling          : 4:2:0
    Bit depth                   : 8 bits
    Scan type                   : Progressive
    Bits/(Pixel*Frame)          : 0.090
    Stream size                 : 2.54 GiB (83%)
    Title                       : CinemaniaHDD.Net
    Writing library             : x264 core 157 r2935 545de2f
    Encoding settings           : cabac=1 / ref=5 / deblock=1:0:0 / analyse=0x3:0x113 / me=hex / subme=8 / psy=1 / psy_rd=1.00:0.00 / mixed_ref=1 / me_range=16 / chroma_me=1 / trellis=2 / 8x8dct=1 / cqm=0 / deadzone=21,11 / fast_pskip=1 / chroma_qp_offset=-2 / threads=25 / lookahead_threads=4 / sliced_threads=0 / nr=0 / decimate=1 / interlaced=0 / bluray_compat=0 / constrained_intra=0 / bframes=3 / b_pyramid=2 / b_adapt=1 / b_bias=0 / direct=3 / weightb=1 / open_gop=0 / weightp=2 / keyint=250 / keyint_min=25 / scenecut=40 / intra_refresh=0 / rc_lookahead=50 / rc=abr / mbtree=1 / bitrate=3500 / ratetol=1.0 / qcomp=0.60 / qpmin=0 / qpmax=69 / qpstep=4 / vbv_maxrate=62500 / vbv_bufsize=78125 / nal_hrd=none / filler=0 / ip_ratio=1.40 / aq=1:1.00
    Default                     : Yes
    Forced                      : No
    Color range                 : Limited
    Color primaries             : BT.709
    Transfer characteristics    : BT.709
    Matrix coefficients         : BT.709

    Audio #1
    ID                          : 2
    Format                      : AC-3
    Format/Info                 : Audio Coding 3
    Commercial name             : Dolby Digital
    Codec ID                    : A_AC3
    Duration                    : 1 h 46 min
    Bit rate mode               : Constant
    Bit rate                    : 256 kb/s
    Channel(s)                  : 2 channels
    Channel layout              : L R
    Sampling rate               : 48.0 kHz
    Frame rate                  : 31.250 FPS (1536 SPF)
    Bit depth                   : 16 bits
    Compression mode            : Lossy
    Delay relative to video     : -5 ms
    Stream size                 : 195 MiB (6%)
    Title                       : Español latino [CinemaniaHDD]
    Language                    : Spanish
    Service kind                : Complete Main
    Default                     : Yes
    Forced                      : No

    Audio #2
    ID                          : 3
    Format                      : AC-3
    Format/Info                 : Audio Coding 3
    Commercial name             : Dolby Digital
    Codec ID                    : A_AC3
    Duration                    : 1 h 46 min
    Bit rate mode               : Constant
    Bit rate                    : 448 kb/s
    Channel(s)                  : 6 channels
    Channel layout              : L R C LFE Ls Rs
    Sampling rate               : 48.0 kHz
    Frame rate                  : 31.250 FPS (1536 SPF)
    Bit depth                   : 16 bits
    Compression mode            : Lossy
    Delay relative to video     : -5 ms
    Stream size                 : 340 MiB (11%)
    Title                       : Inglés [CinemaniaHDD]
    Language                    : English
    Service kind                : Complete Main
    Default                     : No
    Forced                      : No

    Menu
    00:00:00.000                : :Chapter 1
    00:09:49.520                : :Chapter 2
    00:19:23.640                : :Chapter 3
    00:26:39.760                : :Chapter 4
    00:36:05.640                : :Chapter 5
    00:45:07.720                : :Chapter 6
    00:54:49.280                : :Chapter 7
    01:05:23.240                : :Chapter 8
    01:12:10.800                : :Chapter 9
    01:22:23.400                : :Chapter 10
    01:33:24.280                : :Chapter 11
    01:43:04.000                : :Chapter 12

     

  • Peso: 3.06 GiB

Sinopsis

Una joven Abigail vive en una ciudad cuyas fronteras se cerraron hace muchos años debido a una epidemia de una misteriosa enfermedad. El padre de Abby era uno de los enfermos, y lo llevaron cuando ella tenía seis años. Al ir contra las autoridades para encontrar a su padre, Abby descubre que su ciudad está llena de magia. Y ella descubre en sí misma habilidades mágicas extraordinarias.

Ficha técnica

Video trailer de la película

Enlaces de descarga

Rip de Bluray

Descargar Abigail y la ciudad perdida (2019) 1080p Latino




Aportes de DPeliculasHDmega la pass es:dpeliculashdmega.org Aportes de CinemaniaHD la pass es:cinemaniahdd.com
Guardado en : Aventura , Fantasía , HD 1080p

Películas relacionadas

  • El Lobo Y El Leon (2021) HD 1080p Latino

    El Lobo Y El Leon (2021) HD 1080p Latino

    2021
    El Lobo Y El Leon (2021) HD 1080p Latino

    1h 39m 2021

    Descargar El Lobo Y El Leon (2021) HD 1080p Latino. A la muerte de su abuelo, Alma, un joven pianista...

    Director: Gilles de Maistre

    Género: Aventura

    Actores: Victor Cornfoot

  • El Lobo Y El Leon (2021) PLACEBO Full HD 1080p Latino

    El Lobo Y El Leon (2021) PLACEBO Full HD 1080p Latino

    2021
    El Lobo Y El Leon (2021) PLACEBO Full HD 1080p Latino

    1h 39m 2021

    Descargar El Lobo Y El Leon (2021) PLACEBO Full HD 1080p Latino. A la muerte de su abuelo, Alma, un joven...

    Director: Gilles de Maistre

    Género: Aventura

    Actores: Victor Cornfoot

  • El Lobo Y El Leon (2021) REMUX 1080p Latino

    El Lobo Y El Leon (2021) REMUX 1080p Latino

    2021
    El Lobo Y El Leon (2021) REMUX 1080p Latino

    1h 39m 2021

    Descargar El Lobo Y El Leon (2021) REMUX 1080p Latino. A la muerte de su abuelo, Alma, un joven pianista...

    Director: Gilles de Maistre

    Género: Aventura

    Actores: Victor Cornfoot

  • Black Adam (2022) WEB-DL 4K UHD HDR Latino

    Black Adam (2022) WEB-DL 4K UHD HDR Latino

    2022
    Black Adam (2022) WEB-DL 4K UHD HDR Latino

    2h 4m 2022

    Descargar Black Adam (2022) WEB-DL 4K UHD HDR Latino. Casi 5.000 años después de haber sido dotado...

    Director: Jaume Collet-Serra

    Género: 4K HDR

    Actores: Yssa Mei Panganiban

  • Black Adam (2022) MA WEB-DL 1080p Latino

    Black Adam (2022) MA WEB-DL 1080p Latino

    2022
    Black Adam (2022) MA WEB-DL 1080p Latino

    2h 4m 2022

    Descargar Black Adam (2022) MA WEB-DL 1080p Latino. Casi 5.000 años después de haber sido dotado de...

    Director: Jaume Collet-Serra

    Género: Acción

    Actores: Yssa Mei Panganiban

descargar Abigail y la ciudad perdida (2019) 1080p Latino WEBDL 1080p gratis, Abigail y la ciudad perdida (2019) 1080p Latino WEBDL mega 1 link, Abigail y la ciudad perdida (2019) 1080p Latino WEBDL pelicula completa, descargar Abigail y la ciudad perdida (2019) 1080p Latino WEBDL gratis en mega.

Abigail y la ciudad perdida (2019) 1080p Latino pelicula full hd, Abigail y la ciudad perdida (2019) 1080p Latino mega latino, Abigail y la ciudad perdida (2019) 1080p Latino 4k latino, Abigail y la ciudad perdida (2019) 1080p Latino pelicula completa, Abigail y la ciudad perdida (2019) 1080p Latino descargar gratis, descargar Abigail y la ciudad perdida (2019) 1080p Latino pelicula latino, Abigail y la ciudad perdida (2019) 1080p Latino 1 link mega, Abigail y la ciudad perdida (2019) 1080p Latino 1 link google drive, Abigail y la ciudad perdida (2019) 1080p Latino hd 1080p latino.
Comentarios 0