×

¿Problemas para descargar con Mozilla, EDGE? Deshabilita la opción "Abrir vinculos en una pestaña nueva" tal como lo muestra ésta imagen.

Abigail (2024) REMUX 1080p Latino-CMHDD

11 vistas

Información de Abigail (2024) REMUX 1080p Latino-CMHDD

Datos de la película

  • Calidad: Full 1080p
  • Audio: Se especifica abajo de la Sinopsis
  • Subtitulos: Español Latino PGS - Ingles PGS
  • Resolución: 1920x1080p
  • Formato: MKV
  • Codec: H.264
  • Encoder: CinefiloCool | Source: FullBD-iNTEGRUM
  • Mediainfo: Clic para Mostrar Datos Ver
  • Abigail.2024.Bluray.REMUX.1080p.AVC.Latino-CC@CMHDD.mkv
    Format                      : Matroska
    Format version              : Version 4
    File size                   : 29.9 GiB
    Duration                    : 1 h 49 min
    Overall bit rate mode       : Variable
    Overall bit rate            : 39.0 Mb/s
    Movie name                  : Abigail (2024) CinemaniaHDD.Net
    Encoded date                : UTC 2024-07-10 03:48:15
    Writing application         : mkvmerge v56.1.0 ('My Friend') 64-bit
    Writing library             : libebml v1.4.2 + libmatroska v1.6.4
    Cover                       : Yes
    Attachments                 : cover.jpg / CINEMANIAHD.png

    Video
    ID                          : 1
    ID in the original source m : 4113 (0x1011)
    Format                      : AVC
    Format/Info                 : Advanced Video Codec
    Format profile              : High@L4.1
    Format settings             : CABAC / 2 Ref Frames
    Format settings, CABAC      : Yes
    Format settings, Reference  : 2 frames
    Codec ID                    : V_MPEG4/ISO/AVC
    Duration                    : 1 h 49 min
    Bit rate mode               : Variable
    Bit rate                    : 33.1 Mb/s
    Width                       : 1 920 pixels
    Height                      : 1 080 pixels
    Display aspect ratio        : 16:9
    Frame rate mode             : Constant
    Frame rate                  : 23.976 (24000/1001) FPS
    Color space                 : YUV
    Chroma subsampling          : 4:2:0
    Bit depth                   : 8 bits
    Scan type                   : Progressive
    Bits/(Pixel*Frame)          : 0.666
    Stream size                 : 25.3 GiB (85%)
    Title                       : REMUX HD1080p [CinemaniaHDD]
    Default                     : Yes
    Forced                      : Yes
    Original source medium      : Blu-ray

    Audio #1
    ID                          : 2
    ID in the original source m : 4353 (0x1101)
    Format                      : E-AC-3
    Format/Info                 : Enhanced AC-3
    Commercial name             : Dolby Digital Plus
    Format profile              : Blu-ray Disc
    Codec ID                    : A_EAC3
    Duration                    : 1 h 49 min
    Bit rate mode               : Constant
    Bit rate                    : 768 kb/s
    Channel(s)                  : 8 channels
    Channel layout              : L R C LFE Ls Rs Lb Rb
    Sampling rate               : 48.0 kHz
    Frame rate                  : 31.250 FPS (1536 SPF)
    Compression mode            : Lossy
    Stream size                 : 602 MiB (2%)
    Title                       : Español Latino DDP [CinemaniaHDD]
    Language                    : Spanish
    Service kind                : Complete Main
    Default                     : No
    Forced                      : No
    Original source medium      : Blu-ray

    Audio #2
    ID                          : 3
    ID in the original source m : 4352 (0x1100)
    Format                      : MLP FBA
    Format/Info                 : Meridian Lossless Packing FBA
    Commercial name             : Dolby TrueHD
    Codec ID                    : A_TRUEHD
    Duration                    : 1 h 49 min
    Bit rate mode               : Variable
    Bit rate                    : 3 944 kb/s
    Maximum bit rate            : 6 240 kb/s
    Channel(s)                  : 8 channels
    Channel layout              : L R C LFE Ls Rs Lb Rb
    Sampling rate               : 48.0 kHz
    Frame rate                  : 1 200.000 FPS (40 SPF)
    Compression mode            : Lossless
    Stream size                 : 3.02 GiB (10%)
    Title                       : Ingles THD[CinemaniaHDD]
    Language                    : English
    Default                     : No
    Forced                      : No
    Original source medium      : Blu-ray

    Audio #3
    ID                          : 4
    Format                      : AC-3
    Format/Info                 : Audio Coding 3
    Commercial name             : Dolby Digital
    Codec ID                    : A_AC3
    Duration                    : 1 h 49 min
    Bit rate mode               : Constant
    Bit rate                    : 640 kb/s
    Channel(s)                  : 6 channels
    Channel layout              : L R C LFE Ls Rs
    Sampling rate               : 48.0 kHz
    Frame rate                  : 31.250 FPS (1536 SPF)
    Compression mode            : Lossy
    Stream size                 : 501 MiB (2%)
    Title                       : Español Latino AC3 [CinemaniaHDD]
    Language                    : Spanish
    Service kind                : Complete Main
    Default                     : Yes
    Forced                      : Yes

    Audio #4
    ID                          : 5
    ID in the original source m : 4352 (0x1100)
    Format                      : AC-3
    Format/Info                 : Audio Coding 3
    Commercial name             : Dolby Digital
    Codec ID                    : A_AC3
    Duration                    : 1 h 49 min
    Bit rate mode               : Constant
    Bit rate                    : 448 kb/s
    Channel(s)                  : 6 channels
    Channel layout              : L R C LFE Ls Rs
    Sampling rate               : 48.0 kHz
    Frame rate                  : 31.250 FPS (1536 SPF)
    Compression mode            : Lossy
    Stream size                 : 351 MiB (1%)
    Title                       : Ingles AC3 [CinemaniaHDD]
    Language                    : English
    Service kind                : Complete Main
    Default                     : No
    Forced                      : No
    Original source medium      : Blu-ray

    Text #1
    ID                          : 6
    ID in the original source m : 4611 (0x1203)
    Format                      : PGS
    Muxing mode                 : zlib
    Codec ID                    : S_HDMV/PGS
    Codec ID/Info               : Picture based subtitle format used on BDs/HD-DVDs
    Duration                    : 4 min 4 s
    Bit rate                    : 1 398 b/s
    Count of elements           : 4
    Stream size                 : 41.8 KiB (0%)
    Title                       : Forzados-PGS [CinemaniaHDD]
    Language                    : Spanish
    Default                     : No
    Forced                      : No
    Original source medium      : Blu-ray

    Text #2
    ID                          : 7
    ID in the original source m : 4609 (0x1201)
    Format                      : PGS
    Muxing mode                 : zlib
    Codec ID                    : S_HDMV/PGS
    Codec ID/Info               : Picture based subtitle format used on BDs/HD-DVDs
    Duration                    : 1 h 46 min
    Bit rate                    : 29.6 kb/s
    Count of elements           : 2496
    Stream size                 : 22.6 MiB (0%)
    Title                       : Español-PGS [CinemaniaHDD]
    Language                    : Spanish
    Default                     : No
    Forced                      : No
    Original source medium      : Blu-ray

    Text #3
    ID                          : 8
    ID in the original source m : 4608 (0x1200)
    Format                      : PGS
    Muxing mode                 : zlib
    Codec ID                    : S_HDMV/PGS
    Codec ID/Info               : Picture based subtitle format used on BDs/HD-DVDs
    Duration                    : 1 h 49 min
    Bit rate                    : 38.6 kb/s
    Count of elements           : 3088
    Stream size                 : 30.2 MiB (0%)
    Title                       : Ingles-PGS [CinemaniaHDD]
    Language                    : English
    Default                     : No
    Forced                      : No
    Original source medium      : Blu-ray

    Text #4
    ID                          : 9
    Format                      : UTF-8
    Codec ID                    : S_TEXT/UTF8
    Codec ID/Info               : UTF-8 Plain Text
    Duration                    : 1 h 42 min
    Bit rate                    : 0 b/s
    Count of elements           : 10
    Stream size                 : 199 Bytes (0%)
    Title                       : Forzados-SRT [CinemaniaHDD]
    Language                    : Spanish
    Default                     : Yes
    Forced                      : Yes

    Text #5
    ID                          : 10
    Format                      : UTF-8
    Codec ID                    : S_TEXT/UTF8
    Codec ID/Info               : UTF-8 Plain Text
    Duration                    : 1 h 46 min
    Bit rate                    : 42 b/s
    Count of elements           : 1251
    Stream size                 : 33.5 KiB (0%)
    Title                       : Español-SRT [CinemaniaHDD]
    Language                    : Spanish
    Default                     : No
    Forced                      : No

    Menu
    00:00:00.000                : Chapter 01
    00:03:58.071                : Chapter 02
    00:11:30.564                : Chapter 03
    00:15:10.284                : Chapter 04
    00:19:58.155                : Chapter 05
    00:25:56.513                : Chapter 06
    00:33:38.099                : Chapter 07
    00:38:36.981                : Chapter 08
    00:46:24.948                : Chapter 09
    00:50:25.605                : Chapter 10
    00:53:47.933                : Chapter 11
    00:57:20.353                : Chapter 12
    01:04:18.896                : Chapter 13
    01:11:31.745                : Chapter 14
    01:19:01.069                : Chapter 15
    01:25:04.307                : Chapter 16
    01:30:25.336                : Chapter 17
    01:34:35.002                : Chapter 18
    01:40:15.801                : Chapter 19
    01:45:23.442                : Chapter 20

  • Peso: 29.9 GiB

Sinopsis

Descargar Abigail (2024) REMUX 1080p Latino-CMHDD. A una banda de delincuentes se les ha encargado secuestrar a Abigail, una bailarina de doce años hija de una poderosa figura del inframundo. Su misión requiere también vigilarla durante la noche para poder cobrar un rescate de 50 millones de dólares. En una mansión aislada, los captores comienzan a desaparecer, uno por uno, y descubren, para su creciente horror, que la pequeña niña con la que están encerrados no es normal y está mostrando su verdadera naturaleza.

Audio Español Latino EAC3 7.1 + AC3 5.1 Bluray – Ingles THD 7.1 + AC3 5.1 Bluray

Ficha técnica

Video trailer de la película

Enlaces de descarga

Rip de Bluray

Descargar Abigail (2024) REMUX 1080p Latino-CMHDD




Aportes de DPeliculasHDmega la pass es:dpeliculashdmega.org Aportes de CinemaniaHD la pass es:cinemaniahdd.com Aportes recientes:cinemaniahdd.net
Guardado en : Remux , Suspenso , Terror

Películas relacionadas

descargar Abigail (2024) REMUX 1080p Latino-CMHDD Full 1080p 1080p gratis, Abigail (2024) REMUX 1080p Latino-CMHDD Full 1080p mega 1 link, Abigail (2024) REMUX 1080p Latino-CMHDD Full 1080p pelicula completa, descargar Abigail (2024) REMUX 1080p Latino-CMHDD Full 1080p gratis en mega.

Abigail (2024) REMUX 1080p Latino-CMHDD pelicula full hd, Abigail (2024) REMUX 1080p Latino-CMHDD mega latino, Abigail (2024) REMUX 1080p Latino-CMHDD 4k latino, Abigail (2024) REMUX 1080p Latino-CMHDD pelicula completa, Abigail (2024) REMUX 1080p Latino-CMHDD descargar gratis, descargar Abigail (2024) REMUX 1080p Latino-CMHDD pelicula latino, Abigail (2024) REMUX 1080p Latino-CMHDD 1 link mega, Abigail (2024) REMUX 1080p Latino-CMHDD 1 link google drive, Abigail (2024) REMUX 1080p Latino-CMHDD hd 1080p latino.
Comentarios 0