×

¿Problemas para descargar con Mozilla, EDGE? Deshabilita la opción "Abrir vinculos en una pestaña nueva" tal como lo muestra ésta imagen.

Abigail y la ciudad perdida (2019) REMUX 1080p Latino

722 vistas

Información de Abigail y la ciudad perdida (2019) REMUX 1080p Latino

Datos de la película

  • Calidad: Full 1080p
  • Audio: Se especifica abajo de la Sinopsis
  • Subtitulos: No Disponible en Subdivx
  • Resolución: 1920x1080p
  • Formato: MKV
  • Codec: H.264
  • Encoder: CinefiloCool
  • Mediainfo: Clic para Mostrar Datos Ver
  • Abigail (2019) REMUX 1080p Latino-CMHDD.mkv
    Format                      : Matroska
    Format version              : Version 4
    File size                   : 16.7 GiB
    Duration                    : 1 h 46 min
    Overall bit rate mode       : Variable
    Overall bit rate            : 22.5 Mb/s
    Movie name                  : CinemaniaHDD.Net
    Encoded date                : UTC 2020-01-24 23:05:14
    Writing application         : mkvmerge v42.0.0 ('Overtime') 64-bit
    Writing library             : libebml v1.3.10 + libmatroska v1.5.2
    Attachments                 : CINEMANIAHD.png

    Video
    ID                          : 1
    Format                      : MPEG Video
    Format version              : Version 2
    Format profile              : Main@High
    Format settings             : CustomMatrix / BVOP
    Format settings, BVOP       : Yes
    Format settings, Matrix     : Custom
    Format settings, GOP        : M=3, N=15
    Codec ID                    : V_MPEG2
    Codec ID/Info               : MPEG 1 or 2 Video
    Duration                    : 1 h 46 min
    Bit rate mode               : Variable
    Bit rate                    : 18.0 Mb/s
    Maximum bit rate            : 27.0 Mb/s
    Width                       : 1 920 pixels
    Height                      : 1 080 pixels
    Display aspect ratio        : 16:9
    Frame rate mode             : Constant
    Frame rate                  : 25.000 FPS
    Standard                    : Component
    Color space                 : YUV
    Chroma subsampling          : 4:2:0
    Bit depth                   : 8 bits
    Scan type                   : Progressive
    Scan order                  : Top Field First
    Compression mode            : Lossy
    Bits/(Pixel*Frame)          : 0.347
    Time code of first frame    : 00:00:00:00
    Time code source            : Group of pictures header
    GOP, Open/Closed            : Open
    GOP, Open/Closed of first f : Closed
    Stream size                 : 13.3 GiB (80%)
    Title                       : Full HD1080p [REMUX]
    Writing library             : TMPGEnc Video Mastering Works 5 Version. 5.2.3.66
    Default                     : Yes
    Forced                      : Yes
    Color primaries             : BT.709
    Transfer characteristics    : BT.709
    Matrix coefficients         : BT.709

    Audio #1
    ID                          : 2
    Format                      : AC-3
    Format/Info                 : Audio Coding 3
    Commercial name             : Dolby Digital
    Codec ID                    : A_AC3
    Duration                    : 1 h 46 min
    Bit rate mode               : Constant
    Bit rate                    : 256 kb/s
    Channel(s)                  : 2 channels
    Channel layout              : L R
    Sampling rate               : 48.0 kHz
    Frame rate                  : 31.250 FPS (1536 SPF)
    Bit depth                   : 16 bits
    Compression mode            : Lossy
    Stream size                 : 195 MiB (1%)
    Title                       : AC3_2.0_Capt_Esp
    Language                    : Spanish
    Service kind                : Complete Main
    Default                     : Yes
    Forced                      : Yes

    Audio #2
    ID                          : 3
    Format                      : DTS XLL
    Format/Info                 : Digital Theater Systems
    Commercial name             : DTS-HD Master Audio
    Codec ID                    : A_DTS
    Duration                    : 1 h 46 min
    Bit rate mode               : Variable
    Bit rate                    : 4 261 kb/s
    Channel(s)                  : 6 channels
    Channel layout              : C L R Ls Rs LFE
    Sampling rate               : 48.0 kHz
    Frame rate                  : 93.750 FPS (512 SPF)
    Bit depth                   : 24 bits
    Compression mode            : Lossless
    Stream size                 : 3.16 GiB (19%)
    Title                       : DTS-HD_5.1_Bluray_Eng
    Language                    : English
    Default                     : No
    Forced                      : No

    Menu
    00:00:00.000                : en:Chapter 01
    00:09:49.400                : en:Chapter 02
    00:19:23.640                : en:Chapter 03
    00:26:39.760                : en:Chapter 04
    00:36:05.520                : en:Chapter 05
    00:45:07.720                : en:Chapter 06
    00:54:49.280                : en:Chapter 07
    01:05:23.120                : en:Chapter 08
    01:12:10.800                : en:Chapter 09
    01:22:23.400                : en:Chapter 10
    01:33:24.280                : en:Chapter 11
    01:43:03.880                : en:Chapter 12

  • Peso: 16.7 GiB

Sinopsis

Descargar Abigail y la ciudad perdida (2019) REMUX 1080p Latino. Una joven Abigail vive en una ciudad cuyas fronteras se cerraron hace muchos años debido a una epidemia de una misteriosa enfermedad. El padre de Abby era uno de los enfermos, y lo llevaron cuando ella tenía seis años. Al ir contra las autoridades para encontrar a su padre, Abby descubre que su ciudad está llena de magia. Y ella descubre en sí misma habilidades mágicas extraordinarias.

Audio Español Latino AC3 2.0 Capturado – Ingles DTS-HD 5.1 Bluray

Ficha técnica

Video trailer de la película

Enlaces de descarga

Rip de Bluray

Descargar Abigail y la ciudad perdida (2019) REMUX 1080p Latino




Aportes de DPeliculasHDmega la pass es:dpeliculashdmega.org Aportes de CinemaniaHD la pass es:cinemaniahdd.com
Guardado en : Aventura , Fantasía , Remux

Películas relacionadas

descargar Abigail y la ciudad perdida (2019) REMUX 1080p Latino Full 1080p 1080p gratis, Abigail y la ciudad perdida (2019) REMUX 1080p Latino Full 1080p mega 1 link, Abigail y la ciudad perdida (2019) REMUX 1080p Latino Full 1080p pelicula completa, descargar Abigail y la ciudad perdida (2019) REMUX 1080p Latino Full 1080p gratis en mega.

Abigail y la ciudad perdida (2019) REMUX 1080p Latino pelicula full hd, Abigail y la ciudad perdida (2019) REMUX 1080p Latino mega latino, Abigail y la ciudad perdida (2019) REMUX 1080p Latino 4k latino, Abigail y la ciudad perdida (2019) REMUX 1080p Latino pelicula completa, Abigail y la ciudad perdida (2019) REMUX 1080p Latino descargar gratis, descargar Abigail y la ciudad perdida (2019) REMUX 1080p Latino pelicula latino, Abigail y la ciudad perdida (2019) REMUX 1080p Latino 1 link mega, Abigail y la ciudad perdida (2019) REMUX 1080p Latino 1 link google drive, Abigail y la ciudad perdida (2019) REMUX 1080p Latino hd 1080p latino.
Comentarios 0