ABC de amor (2005) [AMZN] WEB-DL 1080p Latino

503 vistas
1 estrella2 estrellas3 estrellas4 estrellas5 estrellas (1 votos, promedio: 5,00 de 5)
Cargando…

Información de ABC de amor (2005) [AMZN] WEB-DL 1080p Latino

Datos de la película

  • Calidad: WEBDL
  • Audio: Se especifica abajo de la Sinopsis
  • Subtitulos: Español Latino SRT- FORZADOS SRT
  • Resolución: 1920x816p
  • Formato: MKV
  • Codec: H.264
  • Encoder: Amazon
  • Mediainfo: Clic para Mostrar Datos Ver
  • Format                                   : Matroska
    Format version                           : Version 4 / Version 2
    File size                                : 6.17 GiB
    Duration                                 : 1 h 30 min
    Overall bit rate mode                    : Variable
    Overall bit rate                         : 9 797 kb/s
    Movie name                               : CinemaniaHDD.net
    Encoded date                             : UTC 2018-10-21 05:34:00
    Writing application                      : mkvmerge v15.0.0 ('Duel with the Devil') 64-bit
    Writing library                          : libebml v1.3.5 + libmatroska v1.4.5

    Video
    ID                                       : 1
    Format                                   : AVC
    Format/Info                              : Advanced Video Codec
    Format profile                           : High@L4
    Format settings                          : CABAC / 4 Ref Frames
    Format settings, CABAC                   : Yes
    Format settings, RefFrames               : 4 frames
    Codec ID                                 : V_MPEG4/ISO/AVC
    Duration                                 : 1 h 30 min
    Bit rate mode                            : Variable
    Bit rate                                 : 8 514 kb/s
    Maximum bit rate                         : 15.0 Mb/s
    Width                                    : 1 920 pixels
    Height                                   : 816 pixels
    Display aspect ratio                     : 2.35:1
    Frame rate mode                          : Constant
    Frame rate                               : 23.976 (24000/1001) FPS
    Color space                              : YUV
    Chroma subsampling                       : 4:2:0
    Bit depth                                : 8 bits
    Scan type                                : Progressive
    Bits/(Pixel*Frame)                       : 0.227
    Stream size                              : 5.36 GiB (87%)
    Language                                 : English
    Default                                  : Yes
    Forced                                   : No
    Color range                              : Limited
    Color primaries                          : BT.709
    Transfer characteristics                 : BT.709
    Matrix coefficients                      : BT.709

    Audio #1
    ID                                       : 2
    Format                                   : E-AC-3
    Format/Info                              : Enhanced Audio Coding 3
    Format settings, Endianness              : Big
    Codec ID                                 : A_EAC3
    Duration                                 : 1 h 30 min
    Bit rate mode                            : Constant
    Bit rate                                 : 640 kb/s
    Channel(s)                               : 6 channels
    Channel positions                        : Front: L C R, Side: L R, LFE
    Sampling rate                            : 48.0 kHz
    Frame rate                               : 187.500 FPS (256 SPF)
    Compression mode                         : Lossy
    Stream size                              : 412 MiB (7%)
    Language                                 : Spanish
    Service kind                             : Complete Main
    Default                                  : Yes
    Forced                                   : No

    Audio #2
    ID                                       : 3
    Format                                   : E-AC-3
    Format/Info                              : Enhanced Audio Coding 3
    Format settings, Endianness              : Big
    Codec ID                                 : A_EAC3
    Duration                                 : 1 h 30 min
    Bit rate mode                            : Constant
    Bit rate                                 : 640 kb/s
    Channel(s)                               : 6 channels
    Channel positions                        : Front: L C R, Side: L R, LFE
    Sampling rate                            : 48.0 kHz
    Frame rate                               : 187.500 FPS (256 SPF)
    Compression mode                         : Lossy
    Stream size                              : 412 MiB (7%)
    Language                                 : English
    Service kind                             : Complete Main
    Default                                  : No
    Forced                                   : No

    Text #1
    ID                                       : 4
    Format                                   : UTF-8
    Codec ID                                 : S_TEXT/UTF8
    Codec ID/Info                            : UTF-8 Plain Text
    Duration                                 : 1 h 25 min
    Bit rate                                 : 73 b/s
    Count of elements                        : 1202
    Stream size                              : 45.8 KiB (0%)
    Title                                    : English [Full]
    Language                                 : English
    Default                                  : No
    Forced                                   : No

    Text #2
    ID                                       : 5
    Format                                   : UTF-8
    Codec ID                                 : S_TEXT/UTF8
    Codec ID/Info                            : UTF-8 Plain Text
    Duration                                 : 1 h 15 min
    Bit rate                                 : 0 b/s
    Count of elements                        : 13
    Stream size                              : 290 Bytes (0%)
    Title                                    : Forzados
    Language                                 : Spanish
    Default                                  : Yes
    Forced                                   : Yes

    Text #3
    ID                                       : 6
    Format                                   : UTF-8
    Codec ID                                 : S_TEXT/UTF8
    Codec ID/Info                            : UTF-8 Plain Text
    Duration                                 : 1 h 25 min
    Bit rate                                 : 72 b/s
    Count of elements                        : 1216
    Stream size                              : 45.2 KiB (0%)
    Language                                 : Spanish
    Default                                  : No
    Forced                                   : No

    Menu
    00:00:00.000                             : en:Studio logo
    00:00:34.000                             : en:Opening credits
    00:03:26.000                             : en:Gabe uses his parents' love story as a cautionary tale, summer camp & Gabe's apartment
    00:05:08.000                             : en:Gabe remembers his happy days before falling in love, Gabe's school & Central Park
    00:07:12.000                             : en:Gabe meets Rosemary & practices sparring with her, karate class & Gabe's school
    00:09:53.000                             : en:Rosemary intimidates Gabe with her karate skills & style, wedding dress shop
    00:12:43.000                             : en:Rosemary shows Gabe her home, Rosemary's apartment
    00:15:38.000                             : en:Gabe deals with his parents' divorce & roams around Rosemary's neighborhood, Upper West Side streets
    00:19:36.000                             : en:Gabe & Rosemary make a bet at the birthday party, Central Park
    00:21:03.000                             : en:Gabe shows Rosemary the park & tries to arrange the next date, Central Park
    00:25:59.000                             : en:Gabe emulates martial arts star & gets ready for next date with Rosemary, Gabe's apartment & barber shop
    00:29:54.000                             : en:Gabe & Rosemary meet his mother's date & get serious about karate, Gabe's apartment
    00:34:43.000                             : en:Gabe & Rosemary plan to find Gabe's father a new place, Gabe's apartment & hallway
    00:38:50.000                             : en:Gabe & Rosemary make their way to the apartment, subway & Greenwich Village streets
    00:42:11.000                             : en:Gabe shows Rosemary the smallest park in New York, Hudson River & Septuagesimo Uno Park
    00:45:27.000                             : en:Gabe tries to work up the nerve to kiss Rosemary, street outside Rosemary's apartment
    00:47:29.000                             : en:Gabe's parents react to his absence, Gabe's apartment & bedroom
    00:50:34.000                             : en:Gabe dreams of Rosemary, Central Park basketball court
    00:51:29.000                             : en:Gabe & Rosemary are assigned new partners, karate class & street
    00:53:41.000                             : en:Gabe waits for Rosemary to call, Gabe's apartment & Central Park
    00:57:29.000                             : en:Gabe wants to hold Rosemary's hand, Carlyle dining room
    01:00:21.000                             : en:Gabe wonders whether to kiss Rosemary, street & Gabe's apartment
    01:02:49.000                             : en:Gabe tries to gauge Rosemary's feelings & prove himself, karate class
    01:07:23.000                             : en:Gabe questions Rosemary's feelings & needs consolation, hospital & Gabe's bedroom
    01:12:01.000                             : en:Gabe resolves to get over Rosemary, Gabe's apartment & Rosemary's street
    01:14:07.000                             : en:Gabe asks his father about the end of love, street bench
    01:16:40.000                             : en:Gabe realizes his true feelings about Rosemary, streets & Central Park
    01:18:55.000                             : en:Gabe confesses his feelings to Rosemary, boathouse wedding
    01:22:36.000                             : en:Gabe's faith in love is restored, Gabe's apartment & NY streets
    01:26:51.000                             : en:End credits

     

  • Peso: 6.17 GiB

Sinopsis

Gabe (Josh Hutcherson) es un estudiante de quinto grado de 11 años de edad que vive en el Upper West Side de Manhattan con su padre y su madre. Los padres de Gabe se separaron hace año y medio, pero todavía comparten piso. Gabe considera a Nueva York como su ciudad – bueno, al menos las diez manzanas que están alrededor de su casa. Gabe es feliz saliendo con sus tres mejores amigos, jugando al baloncesto en el patio del recreo y moviéndose por el barrio. No tiene tiempo ni interés por las chicas. Pero cuando se apunta a clases de kárate y le emparejan con Rosemary Telesco (Charlie Ray), a quien conoce desde la guardería, todo cambia. Gabe se enamora de Rosemary, aun cuando no entiende esos sentimientos que al mismo tiempo le atormentan y le llenan de emoción. Nada es más grande que el primer amor…

 

Latino: E-AC3 5.1  –  Ingles: E-AC3 5.1

Ficha técnica

  • Titulo original: Little Manhattan
  • Fecha de lanzamiento: 30-09-2005 (United States of America)
  • Director: Mark Levin
  • Género: Comedia, Romance
  • Puntuación: 5.0 1 votos
  • Duración:
    1h 30m

Video trailer de la película

Enlaces de descarga

Rip de Bluray

Descargar ABC de amor (2005) [AMZN] WEB-DL 1080p Latino




Aportes de DPeliculasHDmega la pass es:dpeliculashdmega.org Aportes de CinemaniaHD la pass es:cinemaniahdd.com
Guardado en : Comedia , Romance

Películas relacionadas

  • La balada de Buster Scruggs (2018) NF 1080p Latino

    2018
    La balada de Buster Scruggs (2018) NF 1080p Latino

    0.0 2h 12m 2018

    Los siempre singulares Joel y Ethan Cohen escriben y dirigen esta antología de seis historias del Salvaje...

    Director: Joel Coen

    Género: Comedia

    Actores: Zoe Kazan

  • Cambio de princesa (2018) NF 1080p Latino

    2018
    Cambio de princesa (2018) NF 1080p Latino

    0.0 1h 41m 2018

    Una repostera de Chicago y una futura princesa descubren que parecen gemelas, así que idean un plan...

    Director: Mike Rohl

    Género: Comedia

    Actores: Vanessa Hudgens

  • La pequeña brujita (2018) AMZN 1080p Latino

    2018
    La pequeña brujita (2018) AMZN 1080p Latino

    5.0 1h 43m 2018

    Descargar La pequeña brujita (2018) AMZN 1080p Latino, Mega, Google Drive. La pequeña bruja sólo tiene...

    Director: Mike Schaerer

    Género: Comedia

    Actores: Verena Bosshard

  • El infiltrado del KKKlan (2018) Full 1080p Latino

    2018
    El infiltrado del KKKlan (2018) Full 1080p Latino

    5.0 2h 15m 2018

    A principios de los años setenta, una época de gran agitación social con la encarnizada lucha por...

    Director: Spike Lee

    Género: Comedia

    Actores: Topher Grace

  • Locamente Millonarios (2018) 1080p Latino

    2018
    Locamente Millonarios (2018) 1080p Latino

    0.0 2h 0m 2018

    Locamente Millonarios (2018) 1080p Latino; Mega, Google Drive. Rachel Chu es profesora de economía en...

    Director: Jon M. Chu

    Género: Comedia

    Actores: Victoria Loke

Comentarios 0