×

¿Problemas para descargar con Mozilla, EDGE? Deshabilita la opción "Abrir vinculos en una pestaña nueva" tal como lo muestra ésta imagen.

Abandonada (2022) AMZN WEB-DL 1080p Latino

52 vistas

Información de Abandonada (2022) AMZN WEB-DL 1080p Latino

Datos de la película

  • Calidad: WEBDL
  • Audio: Español Latino AC3 5.1 WEB-DL - Ingles AC3 5.1 WEB-DL
  • Subtitulos: Español Latino SRT- FORZADOS SRT
  • Resolución: 1920x800p
  • Formato: MKV
  • Codec: H.264
  • Encoder: Melkor
  • Mediainfo: Clic para Mostrar Datos Ver
  • Abandonada (2022) AMZN WebDL 1080p Latino.mkv
    Format                      : Matroska
    Format version              : Version 4
    File size                   : 6.55 GiB
    Duration                    : 1 h 30 min
    Overall bit rate            : 10.4 Mb/s
    Movie name                  : Gone in the Night (2022) CinemaniaHDD.Net
    Encoded date                : UTC 2022-12-13 05:50:33
    Writing application         : mkvmerge v56.1.0 ('My Friend') 64-bit
    Writing library             : libebml v1.4.2 + libmatroska v1.6.4
    Attachments                 : CINEMANIAHD.png

    Video
    ID                          : 1
    Format                      : AVC
    Format/Info                 : Advanced Video Codec
    Format profile              : High@L4
    Format settings             : CABAC / 4 Ref Frames
    Format settings, CABAC      : Yes
    Format settings, Reference  : 4 frames
    Codec ID                    : V_MPEG4/ISO/AVC
    Duration                    : 1 h 30 min
    Bit rate mode               : Constant
    Bit rate                    : 9 301 kb/s
    Nominal bit rate            : 10 000 kb/s
    Width                       : 1 920 pixels
    Height                      : 800 pixels
    Display aspect ratio        : 2.40:1
    Frame rate mode             : Constant
    Frame rate                  : 23.976 (24000/1001) FPS
    Color space                 : YUV
    Chroma subsampling          : 4:2:0
    Bit depth                   : 8 bits
    Scan type                   : Progressive
    Bits/(Pixel*Frame)          : 0.253
    Stream size                 : 5.86 GiB (90%)
    Title                       : Web HD1080p [CinemaniaHDD]
    Default                     : Yes
    Forced                      : Yes
    Color range                 : Limited
    Color primaries             : BT.709
    Transfer characteristics    : BT.709
    Matrix coefficients         : BT.709

    Audio #1
    ID                          : 2
    Format                      : AC-3
    Format/Info                 : Audio Coding 3
    Commercial name             : Dolby Digital
    Codec ID                    : A_AC3
    Duration                    : 1 h 30 min
    Bit rate mode               : Constant
    Bit rate                    : 448 kb/s
    Channel(s)                  : 6 channels
    Channel layout              : L R C LFE Ls Rs
    Sampling rate               : 48.0 kHz
    Frame rate                  : 31.250 FPS (1536 SPF)
    Compression mode            : Lossy
    Stream size                 : 289 MiB (4%)
    Title                       : Español Latino [CinemaniaHDD]
    Language                    : Spanish
    Service kind                : Complete Main
    Default                     : Yes
    Forced                      : Yes

    Audio #2
    ID                          : 3
    Format                      : E-AC-3
    Format/Info                 : Enhanced AC-3
    Commercial name             : Dolby Digital Plus
    Codec ID                    : A_EAC3
    Duration                    : 1 h 30 min
    Bit rate mode               : Constant
    Bit rate                    : 640 kb/s
    Channel(s)                  : 6 channels
    Channel layout              : L R C LFE Ls Rs
    Sampling rate               : 48.0 kHz
    Frame rate                  : 31.250 FPS (1536 SPF)
    Compression mode            : Lossy
    Stream size                 : 413 MiB (6%)
    Title                       : Ingles [CinemaniaHDD]
    Language                    : English
    Service kind                : Complete Main
    Default                     : No
    Forced                      : No

    Text #1
    ID                          : 4
    Format                      : UTF-8
    Codec ID                    : S_TEXT/UTF8
    Codec ID/Info               : UTF-8 Plain Text
    Duration                    : 3 s 3 ms
    Bit rate                    : 26 b/s
    Count of elements           : 1
    Stream size                 : 10.0 Bytes (0%)
    Title                       : Forzados-SRT [CinemaniaHDD]
    Language                    : Spanish
    Default                     : Yes
    Forced                      : Yes

    Text #2
    ID                          : 5
    Format                      : UTF-8
    Codec ID                    : S_TEXT/UTF8
    Codec ID/Info               : UTF-8 Plain Text
    Duration                    : 1 h 19 min
    Bit rate                    : 57 b/s
    Count of elements           : 1066
    Stream size                 : 33.5 KiB (0%)
    Title                       : Español-SRT [CinemaniaHDD]
    Language                    : Spanish
    Default                     : No
    Forced                      : No

    Text #3
    ID                          : 6
    Format                      : UTF-8
    Codec ID                    : S_TEXT/UTF8
    Codec ID/Info               : UTF-8 Plain Text
    Duration                    : 1 h 28 min
    Bit rate                    : 58 b/s
    Count of elements           : 1668
    Stream size                 : 38.2 KiB (0%)
    Title                       : Ingles-SRT [CinemaniaHDD]
    Language                    : English
    Default                     : No
    Forced                      : No

  • Peso: 6.55 GiB

Sinopsis

Descargar Abandonada (2022) AMZN WEB-DL 1080p Latino. Al llegar a una cabaña remota en las secuoyas, Kath y su novio encuentran a una misteriosa pareja joven que ya está allí; al parecer, el alquiler se ha reservado dos veces. Deciden compartir la cabaña con estos extraños hasta la mañana siguiente, pero su novio desaparece con la joven, lo que envía a Kath en una espiral para encontrar una explicación para su repentina ruptura, pero la verdad es mucho más extraña de lo que podría haber imaginado.

Ficha técnica

  • Titulo original: Gone in the Night
  • Fecha de lanzamiento: 15-07-2022 (United States of America)
  • Director: Eli Horowitz
  • Género: Misterio, Suspenso

Video trailer de la película

Enlaces de descarga

Rip de Bluray

Descargar Abandonada (2022) AMZN WEB-DL 1080p Latino




Aportes de DPeliculasHDmega la pass es:dpeliculashdmega.org Aportes de CinemaniaHD la pass es:cinemaniahdd.com
Guardado en : Misterio , Suspenso

Películas relacionadas

descargar Abandonada (2022) AMZN WEB-DL 1080p Latino WEBDL 1080p gratis, Abandonada (2022) AMZN WEB-DL 1080p Latino WEBDL mega 1 link, Abandonada (2022) AMZN WEB-DL 1080p Latino WEBDL pelicula completa, descargar Abandonada (2022) AMZN WEB-DL 1080p Latino WEBDL gratis en mega.

Abandonada (2022) AMZN WEB-DL 1080p Latino pelicula full hd, Abandonada (2022) AMZN WEB-DL 1080p Latino mega latino, Abandonada (2022) AMZN WEB-DL 1080p Latino 4k latino, Abandonada (2022) AMZN WEB-DL 1080p Latino pelicula completa, Abandonada (2022) AMZN WEB-DL 1080p Latino descargar gratis, descargar Abandonada (2022) AMZN WEB-DL 1080p Latino pelicula latino, Abandonada (2022) AMZN WEB-DL 1080p Latino 1 link mega, Abandonada (2022) AMZN WEB-DL 1080p Latino 1 link google drive, Abandonada (2022) AMZN WEB-DL 1080p Latino hd 1080p latino.
Comentarios 0