Un Amor Para Recordar (2002) OPEN MATTE Web-DL 1080p Latino

141 vistas
1 estrella2 estrellas3 estrellas4 estrellas5 estrellas (1 votos, promedio: 5,00 de 5)
Cargando...

Información de Un Amor Para Recordar (2002) OPEN MATTE Web-DL 1080p Latino

Datos de la película

  • Calidad: WEBDL
  • Audio: Se especifica abajo de la Sinopsis
  • Subtitulos: Español Latino SRT - Ingles SRT
  • Resolución: 1920x1080p
  • Formato: MKV
  • Codec: H.264
  • Encoder: CinefiloCool
  • Mediainfo: Clic para Mostrar Datos Ver
  • Un Amor Para Recordar (2002) OPEN MATTE Web 1080p Latino-CMHDD.mkv
    Format                      : Matroska
    Format version              : Version 4
    File size                   : 10.5 GiB
    Duration                    : 1 h 42 min
    Overall bit rate mode       : Variable
    Overall bit rate            : 14.7 Mb/s
    Movie name                  : A Walk To Remember (2002) CinemaniaHDD.Net
    Encoded date                : UTC 2021-02-19 06:50:04
    Writing application         : mkvmerge v51.0.0 ('I Wish') 64-bit
    Writing library             : libebml v1.4.0 + libmatroska v1.6.2
    Attachments                 : CINEMANIAHD.png

    Video
    ID                          : 1
    Format                      : AVC
    Format/Info                 : Advanced Video Codec
    Format profile              : High@L4
    Format settings             : CABAC / 4 Ref Frames
    Format settings, CABAC      : Yes
    Format settings, Reference  : 4 frames
    Codec ID                    : V_MPEG4/ISO/AVC
    Duration                    : 1 h 42 min
    Bit rate mode               : Variable
    Bit rate                    : 12.7 Mb/s
    Maximum bit rate            : 15.0 Mb/s
    Width                       : 1 920 pixels
    Height                      : 1 080 pixels
    Display aspect ratio        : 16:9
    Frame rate mode             : Constant
    Frame rate                  : 23.976 (24000/1001) FPS
    Color space                 : YUV
    Chroma subsampling          : 4:2:0
    Bit depth                   : 8 bits
    Scan type                   : Progressive
    Bits/(Pixel*Frame)          : 0.254
    Stream size                 : 9.02 GiB (86%)
    Title                       : Web Open Matte [CinemaniaHDD]
    Writing library             : x264 core 148 r2623 d5b2374
    Encoding settings           : cabac=1 / ref=4 / deblock=1:-1:-1 / analyse=0x3:0x133 / me=umh / subme=9 / psy=1 / psy_rd=1.00:0.15 / mixed_ref=1 / me_range=24 / chroma_me=1 / trellis=2 / 8x8dct=1 / cqm=0 / deadzone=21,11 / fast_pskip=1 / chroma_qp_offset=-3 / threads=34 / lookahead_threads=5 / sliced_threads=0 / nr=150 / decimate=1 / interlaced=0 / bluray_compat=0 / constrained_intra=0 / bframes=8 / b_pyramid=2 / b_adapt=2 / b_bias=0 / direct=3 / weightb=1 / open_gop=0 / weightp=2 / keyint=120 / keyint_min=61 / scenecut=0 / intra_refresh=0 / rc_lookahead=120 / rc=crf / mbtree=1 / crf=18.0 / qcomp=0.60 / qpmin=0 / qpmax=69 / qpstep=4 / vbv_maxrate=15000 / vbv_bufsize=31250 / crf_max=0.0 / nal_hrd=vbr / filler=0 / ip_ratio=1.40 / aq=3:1.00
    Default                     : Yes
    Forced                      : Yes
    Color range                 : Limited
    Color primaries             : BT.709
    Transfer characteristics    : BT.709
    Matrix coefficients         : BT.709

    Audio #1
    ID                          : 2
    Format                      : AC-3
    Format/Info                 : Audio Coding 3
    Commercial name             : Dolby Digital
    Codec ID                    : A_AC3
    Duration                    : 1 h 41 min
    Bit rate mode               : Constant
    Bit rate                    : 256 kb/s
    Channel(s)                  : 2 channels
    Channel layout              : L R
    Sampling rate               : 48.0 kHz
    Frame rate                  : 31.250 FPS (1536 SPF)
    Compression mode            : Lossy
    Delay relative to video     : 27 ms
    Stream size                 : 186 MiB (2%)
    Title                       : Español Latino ORG WB [CinemaniaHDD]
    Language                    : Spanish
    Service kind                : Complete Main
    Default                     : Yes
    Forced                      : Yes

    Audio #2
    ID                          : 3
    Format                      : DTS
    Format/Info                 : Digital Theater Systems
    Codec ID                    : A_DTS
    Duration                    : 1 h 42 min
    Bit rate mode               : Constant
    Bit rate                    : 1 509 kb/s
    Channel(s)                  : 6 channels
    Channel layout              : C L R Ls Rs LFE
    Sampling rate               : 48.0 kHz
    Frame rate                  : 93.750 FPS (512 SPF)
    Bit depth                   : 24 bits
    Compression mode            : Lossy
    Stream size                 : 1.08 GiB (10%)
    Title                       : Ingles [CinemaniaHDD]
    Language                    : English
    Default                     : No
    Forced                      : No

    Audio #3
    ID                          : 4
    Format                      : AC-3
    Format/Info                 : Audio Coding 3
    Commercial name             : Dolby Digital
    Codec ID                    : A_AC3
    Duration                    : 1 h 42 min
    Bit rate mode               : Constant
    Bit rate                    : 256 kb/s
    Channel(s)                  : 2 channels
    Channel layout              : L R
    Sampling rate               : 48.0 kHz
    Frame rate                  : 31.250 FPS (1536 SPF)
    Compression mode            : Lossy
    Delay relative to video     : 27 ms
    Stream size                 : 187 MiB (2%)
    Title                       : Español Latino REDUB [CinemaniaHDD]
    Language                    : Spanish
    Service kind                : Complete Main
    Default                     : No
    Forced                      : No

    Text #1
    ID                          : 5
    Format                      : UTF-8
    Codec ID                    : S_TEXT/UTF8
    Codec ID/Info               : UTF-8 Plain Text
    Duration                    : 50 min 42 s
    Bit rate                    : 3 b/s
    Count of elements           : 35
    Stream size                 : 1.21 KiB (0%)
    Title                       : Forzados-SRT [CinemaniaHDD]
    Language                    : Spanish
    Default                     : Yes
    Forced                      : Yes

    Text #2
    ID                          : 6
    Format                      : UTF-8
    Codec ID                    : S_TEXT/UTF8
    Codec ID/Info               : UTF-8 Plain Text
    Duration                    : 1 h 37 min
    Bit rate                    : 33 b/s
    Count of elements           : 822
    Stream size                 : 24.3 KiB (0%)
    Title                       : Español-SRT [CinemaniaHDD]
    Language                    : Spanish
    Default                     : No
    Forced                      : No

    Text #3
    ID                          : 7
    Format                      : UTF-8
    Codec ID                    : S_TEXT/UTF8
    Codec ID/Info               : UTF-8 Plain Text
    Duration                    : 1 h 37 min
    Bit rate                    : 37 b/s
    Count of elements           : 816
    Stream size                 : 26.9 KiB (0%)
    Title                       : Ingles-SRT [CinemaniaHDD]
    Language                    : English
    Default                     : No
    Forced                      : No

    Menu
    00:00:00.000                : en:Studio Logos
    00:00:31.000                : en:Opening Credits
    00:00:57.000                : en:Landon & Pals Wait for Clay to Arrive
    00:03:35.000                : en:The Gang Hazes Clay
    00:07:36.000                : en:Landon Flees the Scene
    00:08:35.000                : en:Landon Needs a Father
    00:09:21.000                : en:Landon Starts Fidgeting
    00:10:57.000                : en:Jamie Shows Up
    00:12:07.000                : en:Mr. Kelly Doles Out Punishment
    00:13:13.000                : en:Landon Sweeps while Jamie Shows Her Stuff
    00:14:28.000                : en:Landon Drops Off Belinda
    00:15:09.000                : en:Landon Begins Tutoring
    00:18:26.000                : en:Landon Auditions
    00:20:29.000                : en:Landon's Too Young to Die
    00:21:43.000                : en:Jamie Drives Landon
    00:22:59.000                : en:Landon Rehearses with Eric
    00:24:15.000                : en:Landon Needs Help
    00:25:29.000                : en:Reverend Sullivan Gets Things Straight with Landon
    00:27:24.000                : en:Landon & Jamie Discuss Matters of Faith
    00:29:30.000                : en:Landon Dismisses Jamie
    00:30:16.000                : en:Landon Apologizes to Jamie
    00:32:24.000                : en:Landon Tutors Luis
    00:33:21.000                : en:Everyone Prepares for the Play
    00:35:05.000                : en:Landon Visits Clay
    00:36:30.000                : en:The Play Commences
    00:42:46.000                : en:The Play Concludes
    00:43:32.000                : en:Landon Sits with Jamie
    00:45:50.000                : en:Landon's Changed
    00:47:21.000                : en:Landon Delivers a Present to Jamie
    00:49:23.000                : en:Cynthia Urges Landon to Forgive His Father
    00:49:53.000                : en:Landon's Friends are Up to Something
    00:53:07.000                : en:Landon Takes Jamie Home
    00:55:21.000                : en:Jamie Motivates Landon to Make His Dreams Come True
    00:57:48.000                : en:Landon Makes Jamie's Wishes Come True
    01:00:16.000                : en:Jamie Asks Landon to Have Faith
    01:02:30.000                : en:Landon Ignores His Friends For Jamie
    01:02:58.000                : en:Jamie Loves Landon
    01:04:22.000                : en:Jamie & Landon Stargaze
    01:07:17.000                : en:Cynthia Tells Landon to Be Cautious with Jamie
    01:09:17.000                : en:Jamie Comes Clean with Landon
    01:11:19.000                : en:Landon Goes to See His Dad
    01:13:07.000                : en:Landon Drives Home
    01:14:24.000                : en:Eric Checks In on Landon
    01:15:32.000                : en:Landon Has a Cryptic Message for Reverend Sullivan
    01:16:01.000                : en:Jamie Meets Landon
    01:17:40.000                : en:Landon Gets Some Dancing Tips
    01:18:55.000                : en:Dean & Landon Bury the Hatchet
    01:19:41.000                : en:Landon Begins a Construction Project
    01:20:21.000                : en:Jamie's Hospitalized
    01:23:58.000                : en:Belinda Stops By
    01:25:05.000                : en:Jamie Gives Landon a Book
    01:28:09.000                : en:Jamie's Discharged
    01:28:39.000                : en:Landon Reconciles with His Dad
    01:29:31.000                : en:Landon Completes the Telescope
    01:32:30.000                : en:Jamie & Landon Get Married
    01:35:10.000                : en:Landon Catches Up with Reverend Sullivan
    01:38:26.000                : en:End Credits

  • Peso: 10.5 GiB

Sinopsis

Descargar Un Amor Para Recordar (2002) OPEN MATTE Web-DL 1080p Latino. Jamie era la última persona de la que se enamoraría Landon. Demasiado seria y conservadora para su gusto. Hija de un pastor de la iglesia baptista, Jamie no tenía miedo de manifestar que la fe era lo más importante en su vida, aunque ello le costara las críticas de sus compañeros. Landon y su pandilla mandaban en la escuela, pero su reinado terminaría en cuanto salieran del instituto y tuvieran que afrontar las responsabilidades de la vida.

Audio Español Latino AC3 2.0 Doblaje Original Warner + AC3 2.0 Redoblaje – Ingles DTS 5.1 Bluray

Ficha técnica

Video trailer de la película

Enlaces de descarga

Rip de Bluray

Descargar Un Amor Para Recordar (2002) OPEN MATTE Web-DL 1080p Latino




Aportes de DPeliculasHDmega la pass es:dpeliculashdmega.org Aportes de CinemaniaHD la pass es:cinemaniahdd.com
Guardado en : Drama , OPEN MATTE , Romance

Películas relacionadas

Un Amor Para Recordar (2002) OPEN MATTE Web-DL 1080p Latino pelicula full hd, Un Amor Para Recordar (2002) OPEN MATTE Web-DL 1080p Latino mega latino, Un Amor Para Recordar (2002) OPEN MATTE Web-DL 1080p Latino 4k latino, Un Amor Para Recordar (2002) OPEN MATTE Web-DL 1080p Latino pelicula completa, Un Amor Para Recordar (2002) OPEN MATTE Web-DL 1080p Latino descargar gratis, descargar Un Amor Para Recordar (2002) OPEN MATTE Web-DL 1080p Latino pelicula latino, Un Amor Para Recordar (2002) OPEN MATTE Web-DL 1080p Latino 1 link mega, Un Amor Para Recordar (2002) OPEN MATTE Web-DL 1080p Latino 1 link google drive, Un Amor Para Recordar (2002) OPEN MATTE Web-DL 1080p Latino hd 1080p latino.
Comentarios 0