Un Amor Para Recordar (2002) Full HD 1080p Latino

135 vistas
1 estrella2 estrellas3 estrellas4 estrellas5 estrellas (1 votos, promedio: 5,00 de 5)
Cargando...

Información de Un Amor Para Recordar (2002) Full HD 1080p Latino

Datos de la película

  • Calidad: Full 1080p
  • Audio: Se especifica abajo de la Sinopsis
  • Subtitulos: Español Latino SRT - Ingles SRT
  • Resolución: 1920x1080p
  • Formato: MKV
  • Codec: H.264
  • Encoder: CinefiloCool
  • Mediainfo: Clic para Mostrar Datos Ver
  • Un Amor Para Recordar (2002) Full HD 1080p Latino-CMHDD.mkv
    Format                      : Matroska
    Format version              : Version 4
    File size                   : 7.00 GiB
    Duration                    : 1 h 42 min
    Overall bit rate            : 9 782 kb/s
    Movie name                  : A Walk To Remember (2002) CinemaniaHDD.Net
    Encoded date                : UTC 2021-02-19 06:37:18
    Writing application         : mkvmerge v51.0.0 ('I Wish') 64-bit
    Writing library             : libebml v1.4.0 + libmatroska v1.6.2
    Attachments                 : CINEMANIAHD.png

    Video
    ID                          : 1
    Format                      : AVC
    Format/Info                 : Advanced Video Codec
    Format profile              : High@L4.1
    Format settings             : CABAC / 4 Ref Frames
    Format settings, CABAC      : Yes
    Format settings, Reference  : 4 frames
    Codec ID                    : V_MPEG4/ISO/AVC
    Duration                    : 1 h 42 min
    Bit rate                    : 7 758 kb/s
    Width                       : 1 920 pixels
    Height                      : 1 080 pixels
    Display aspect ratio        : 16:9
    Frame rate mode             : Constant
    Frame rate                  : 23.976 (24000/1001) FPS
    Color space                 : YUV
    Chroma subsampling          : 4:2:0
    Bit depth                   : 8 bits
    Scan type                   : Progressive
    Bits/(Pixel*Frame)          : 0.156
    Stream size                 : 5.55 GiB (79%)
    Title                       : Full HD1080p [CinemaniaHDD]
    Writing library             : x264 core 157 r2935 545de2f
    Encoding settings           : cabac=1 / ref=4 / deblock=1:0:0 / analyse=0x3:0x133 / me=tesa / subme=11 / psy=1 / psy_rd=1.00:0.00 / mixed_ref=1 / me_range=24 / chroma_me=1 / trellis=2 / 8x8dct=1 / cqm=0 / deadzone=21,11 / fast_pskip=0 / chroma_qp_offset=-2 / threads=24 / lookahead_threads=6 / sliced_threads=0 / nr=0 / decimate=1 / interlaced=0 / bluray_compat=0 / constrained_intra=0 / bframes=16 / b_pyramid=2 / b_adapt=2 / b_bias=0 / direct=3 / weightb=1 / open_gop=0 / weightp=2 / keyint=240 / keyint_min=24 / scenecut=40 / intra_refresh=0 / rc_lookahead=60 / rc=crf / mbtree=1 / crf=20.0 / qcomp=0.60 / qpmin=0 / qpmax=69 / qpstep=4 / vbv_maxrate=62500 / vbv_bufsize=78125 / crf_max=0.0 / nal_hrd=none / filler=0 / ip_ratio=1.40 / aq=1:1.00
    Default                     : Yes
    Forced                      : Yes
    Color range                 : Limited
    Color primaries             : BT.709
    Transfer characteristics    : BT.709
    Matrix coefficients         : BT.709

    Audio #1
    ID                          : 2
    Format                      : AC-3
    Format/Info                 : Audio Coding 3
    Commercial name             : Dolby Digital
    Codec ID                    : A_AC3
    Duration                    : 1 h 42 min
    Bit rate mode               : Constant
    Bit rate                    : 256 kb/s
    Channel(s)                  : 2 channels
    Channel layout              : L R
    Sampling rate               : 48.0 kHz
    Frame rate                  : 31.250 FPS (1536 SPF)
    Compression mode            : Lossy
    Stream size                 : 187 MiB (3%)
    Title                       : Español Latino ORG WB [CinemaniaHDD]
    Language                    : Spanish
    Service kind                : Complete Main
    Default                     : Yes
    Forced                      : Yes

    Audio #2
    ID                          : 3
    Format                      : DTS
    Format/Info                 : Digital Theater Systems
    Codec ID                    : A_DTS
    Duration                    : 1 h 42 min
    Bit rate mode               : Constant
    Bit rate                    : 1 509 kb/s
    Channel(s)                  : 6 channels
    Channel layout              : C L R Ls Rs LFE
    Sampling rate               : 48.0 kHz
    Frame rate                  : 93.750 FPS (512 SPF)
    Bit depth                   : 24 bits
    Compression mode            : Lossy
    Stream size                 : 1.08 GiB (15%)
    Title                       : Ingles [CinemaniaHDD]
    Language                    : English
    Default                     : No
    Forced                      : No

    Audio #3
    ID                          : 4
    Format                      : AC-3
    Format/Info                 : Audio Coding 3
    Commercial name             : Dolby Digital
    Codec ID                    : A_AC3
    Duration                    : 1 h 42 min
    Bit rate mode               : Constant
    Bit rate                    : 256 kb/s
    Channel(s)                  : 2 channels
    Channel layout              : L R
    Sampling rate               : 48.0 kHz
    Frame rate                  : 31.250 FPS (1536 SPF)
    Compression mode            : Lossy
    Stream size                 : 188 MiB (3%)
    Title                       : Español Latino REDUB [CinemaniaHDD]
    Language                    : Spanish
    Service kind                : Complete Main
    Default                     : No
    Forced                      : No

    Text #1
    ID                          : 5
    Format                      : UTF-8
    Codec ID                    : S_TEXT/UTF8
    Codec ID/Info               : UTF-8 Plain Text
    Duration                    : 50 min 42 s
    Bit rate                    : 3 b/s
    Count of elements           : 35
    Stream size                 : 1.21 KiB (0%)
    Title                       : Forzados-SRT [CinemaniaHDD]
    Language                    : Spanish
    Default                     : Yes
    Forced                      : Yes

    Text #2
    ID                          : 6
    Format                      : UTF-8
    Codec ID                    : S_TEXT/UTF8
    Codec ID/Info               : UTF-8 Plain Text
    Duration                    : 1 h 37 min
    Bit rate                    : 33 b/s
    Count of elements           : 822
    Stream size                 : 24.3 KiB (0%)
    Title                       : Español-SRT [CinemaniaHDD]
    Language                    : Spanish
    Default                     : No
    Forced                      : No

    Text #3
    ID                          : 7
    Format                      : UTF-8
    Codec ID                    : S_TEXT/UTF8
    Codec ID/Info               : UTF-8 Plain Text
    Duration                    : 1 h 37 min
    Bit rate                    : 37 b/s
    Count of elements           : 816
    Stream size                 : 26.8 KiB (0%)
    Title                       : Ingles-SRT [CinemaniaHDD]
    Language                    : English
    Default                     : No
    Forced                      : No

    Menu
    00:00:00.000                : en:Chapter 01
    00:08:55.952                : en:Chapter 02
    00:15:28.928                : en:Chapter 03
    00:24:35.182                : en:Chapter 04
    00:30:36.209                : en:Chapter 05
    00:36:49.457                : en:Chapter 06
    00:43:52.379                : en:Chapter 07
    00:54:26.096                : en:Chapter 08
    01:04:41.002                : en:Chapter 09
    01:16:26.748                : en:Chapter 10
    01:24:18.386                : en:Chapter 11
    01:37:55.995                : en:Chapter 12

  • Peso: 7.00 GiB

Sinopsis

Descargar Un Amor Para Recordar (2002) Full HD 1080p Latino. Jamie era la última persona de la que se enamoraría Landon. Demasiado seria y conservadora para su gusto. Hija de un pastor de la iglesia baptista, Jamie no tenía miedo de manifestar que la fe era lo más importante en su vida, aunque ello le costara las críticas de sus compañeros. Landon y su pandilla mandaban en la escuela, pero su reinado terminaría en cuanto salieran del instituto y tuvieran que afrontar las responsabilidades de la vida.

Audio Español Latino AC3 2.0 Doblaje Original Warner + AC3 2.0 Redoblaje – Ingles DTS 5.1 Bluray

Ficha técnica

Video trailer de la película

Enlaces de descarga

Rip de Bluray

Descargar Un Amor Para Recordar (2002) Full HD 1080p Latino




Aportes de DPeliculasHDmega la pass es:dpeliculashdmega.org Aportes de CinemaniaHD la pass es:cinemaniahdd.com

Películas relacionadas

  • Antonia: Una sinfonía (2018) HD 1080p Latino

    Antonia: Una sinfonía (2018) HD 1080p Latino

    2018
    Antonia: Una sinfonía (2018) HD 1080p Latino

    0.0 2h 17m 2018

    Descargar Antonia: Una sinfonía (2018) HD 1080p Latino. Película basada en la vida de Antonia Brico,...

    Director: Maria Peters

    Género: Drama

    Actores: Tim Ahern

  • Antonia: Una sinfonía (2018) REMUX 1080p Latino

    Antonia: Una sinfonía (2018) REMUX 1080p Latino

    2018
    Antonia: Una sinfonía (2018) REMUX 1080p Latino

    0.0 2h 17m 2018

    Descargar Antonia: Una sinfonía (2018) REMUX 1080p Latino. Película basada en la vida de Antonia Brico,...

    Director: Maria Peters

    Género: Drama

    Actores: Tim Ahern

  • Cosa De Hombres (2003) 1080p Latino

    Cosa De Hombres (2003) 1080p Latino

    2003
    Cosa De Hombres (2003) 1080p Latino

    0.0 1h 41m 2003

    Descargar Cosa De Hombres (2003) 1080p Latino. Paul -Jason Lee- está a punto de casarse con Karen -Selma...

    Director: Chris Koch

    Género: Comedia

    Actores: Zahf Paroo

  • Cosa De Hombres (2003) Full HD 1080p Latino

    Cosa De Hombres (2003) Full HD 1080p Latino

    2003
    Cosa De Hombres (2003) Full HD 1080p Latino

    0.0 1h 41m 2003

    Descargar Cosa De Hombres (2003) Full HD 1080p Latino. Paul -Jason Lee- está a punto de casarse con...

    Director: Chris Koch

    Género: Comedia

    Actores: Zahf Paroo

  • Cosa De Hombres (2003) REMUX 1080p Latino

    Cosa De Hombres (2003) REMUX 1080p Latino

    2003
    Cosa De Hombres (2003) REMUX 1080p Latino

    0.0 1h 41m 2003

    Descargar Cosa De Hombres (2003) REMUX 1080p Latino. Paul -Jason Lee- está a punto de casarse con Karen...

    Director: Chris Koch

    Género: Comedia

    Actores: Zahf Paroo

Un Amor Para Recordar (2002) Full HD 1080p Latino pelicula full hd, Un Amor Para Recordar (2002) Full HD 1080p Latino mega latino, Un Amor Para Recordar (2002) Full HD 1080p Latino 4k latino, Un Amor Para Recordar (2002) Full HD 1080p Latino pelicula completa, Un Amor Para Recordar (2002) Full HD 1080p Latino descargar gratis, descargar Un Amor Para Recordar (2002) Full HD 1080p Latino pelicula latino, Un Amor Para Recordar (2002) Full HD 1080p Latino 1 link mega, Un Amor Para Recordar (2002) Full HD 1080p Latino 1 link google drive, Un Amor Para Recordar (2002) Full HD 1080p Latino hd 1080p latino.
Comentarios 0