×

¿Problemas para descargar con Mozilla, EDGE? Deshabilita la opción "Abrir vinculos en una pestaña nueva" tal como lo muestra ésta imagen.

A Walk in the Clouds (1995) REMUX 1080p Latino – CMHDD

268 vistas

Información de A Walk in the Clouds (1995) REMUX 1080p Latino – CMHDD

Datos de la película

  • Calidad: Full 1080p
  • Audio: Español Latino AC3 2.0 BLURAY - Ingles DTS 5.1 BLURAY
  • Subtitulos: Español Latino PGS
  • Resolución: 1920x1080p
  • Formato: MKV
  • Codec: H.264
  • Encoder: Dracarys
  • Mediainfo: Clic para Mostrar Datos Ver
  • Format                      : Matroska
    Format version              : Version 4
    File size                   : 26.0 GiB
    Duration                    : 1 h 42 min
    Overall bit rate mode       : Variable
    Overall bit rate            : 36.4 Mb/s
    Movie name                  : A Walk in the Clouds (1995) REMUX 1080p Latino - CMHDD
    Encoded date                : UTC 2021-03-09 13:23:25
    Writing application         : mkvmerge v51.0.0 ('I Wish') 64-bit
    Writing library             : libebml v1.4.0 + libmatroska v1.6.2

    Video
    ID                          : 1
    Format                      : AVC
    Format/Info                 : Advanced Video Codec
    Format profile              : High@L4.1
    Format settings             : CABAC / 4 Ref Frames
    Format settings, CABAC      : Yes
    Format settings, Reference  : 4 frames
    Codec ID                    : V_MPEG4/ISO/AVC
    Duration                    : 1 h 42 min
    Bit rate mode               : Variable
    Bit rate                    : 32.2 Mb/s
    Maximum bit rate            : 33.7 Mb/s
    Width                       : 1 920 pixels
    Height                      : 1 080 pixels
    Display aspect ratio        : 16:9
    Frame rate mode             : Constant
    Frame rate                  : 23.976 (24000/1001) FPS
    Color space                 : YUV
    Chroma subsampling          : 4:2:0
    Bit depth                   : 8 bits
    Scan type                   : Progressive
    Bits/(Pixel*Frame)          : 0.648
    Stream size                 : 23.0 GiB (88%)
    Default                     : Yes
    Forced                      : No

    Audio #1
    ID                          : 2
    Format                      : AC-3
    Format/Info                 : Audio Coding 3
    Commercial name             : Dolby Digital
    Codec ID                    : A_AC3
    Duration                    : 1 h 42 min
    Bit rate mode               : Constant
    Bit rate                    : 224 kb/s
    Channel(s)                  : 2 channels
    Channel layout              : L R
    Sampling rate               : 48.0 kHz
    Frame rate                  : 31.250 FPS (1536 SPF)
    Compression mode            : Lossy
    Stream size                 : 164 MiB (1%)
    Language                    : Spanish
    Service kind                : Complete Main
    Default                     : Yes
    Forced                      : No

    Audio #2
    ID                          : 3
    Format                      : DTS XLL
    Format/Info                 : Digital Theater Systems
    Commercial name             : DTS-HD Master Audio
    Codec ID                    : A_DTS
    Duration                    : 1 h 42 min
    Bit rate mode               : Variable
    Bit rate                    : 3 971 kb/s
    Channel(s)                  : 6 channels
    Channel layout              : C L R Ls Rs LFE
    Sampling rate               : 48.0 kHz
    Frame rate                  : 93.750 FPS (512 SPF)
    Bit depth                   : 24 bits
    Compression mode            : Lossless
    Stream size                 : 2.83 GiB (11%)
    Language                    : English
    Default                     : No
    Forced                      : No

    Text
    ID                          : 4
    Format                      : PGS
    Muxing mode                 : zlib
    Codec ID                    : S_HDMV/PGS
    Codec ID/Info               : Picture based subtitle format used on BDs/HD-DVDs
    Duration                    : 1 h 40 min
    Bit rate                    : 19.9 kb/s
    Count of elements           : 1488
    Stream size                 : 14.4 MiB (0%)
    Language                    : Spanish
    Default                     : No
    Forced                      : No

  • Peso: 26.0 GiB

Sinopsis

Después de regresar del frente, un soldado norteamericano (Keanu Reeves) conoce de forma casual a la hermosa hija del dueño de un viñedo (Aitana Sanchez-Gijón) y acepta ser presentado como su esposo para ayudarla a enfrentarse a su dominante padre. Cuando la pasión entre ellos se enciende con la mágica sensualidad del rito de la cosecha, se dan cuenta de que están embarcándose en una aventura romántica al tener que luchar contra todos para estar juntos.

Ficha técnica

Video trailer de la película

Enlaces de descarga

Rip de Bluray

Descargar A Walk in the Clouds (1995) REMUX 1080p Latino – CMHDD


Aportes de DPeliculasHDmega la pass es:dpeliculashdmega.org Aportes de CinemaniaHD la pass es:cinemaniahdd.com
Guardado en : Drama , Romance

Películas relacionadas

descargar A Walk in the Clouds (1995) REMUX 1080p Latino – CMHDD Full 1080p 1080p gratis, A Walk in the Clouds (1995) REMUX 1080p Latino – CMHDD Full 1080p mega 1 link, A Walk in the Clouds (1995) REMUX 1080p Latino – CMHDD Full 1080p pelicula completa, descargar A Walk in the Clouds (1995) REMUX 1080p Latino – CMHDD Full 1080p gratis en mega.

A Walk in the Clouds (1995) REMUX 1080p Latino – CMHDD pelicula full hd, A Walk in the Clouds (1995) REMUX 1080p Latino – CMHDD mega latino, A Walk in the Clouds (1995) REMUX 1080p Latino – CMHDD 4k latino, A Walk in the Clouds (1995) REMUX 1080p Latino – CMHDD pelicula completa, A Walk in the Clouds (1995) REMUX 1080p Latino – CMHDD descargar gratis, descargar A Walk in the Clouds (1995) REMUX 1080p Latino – CMHDD pelicula latino, A Walk in the Clouds (1995) REMUX 1080p Latino – CMHDD 1 link mega, A Walk in the Clouds (1995) REMUX 1080p Latino – CMHDD 1 link google drive, A Walk in the Clouds (1995) REMUX 1080p Latino – CMHDD hd 1080p latino.
Comentarios 0