×

¿Problemas para descargar con Mozilla, EDGE? Deshabilita la opción "Abrir vinculos en una pestaña nueva" tal como lo muestra ésta imagen.

James Bond: En la Mira de los Asesinos (1985) REMUX 1080p Latino

402 vistas

Información de James Bond: En la Mira de los Asesinos (1985) REMUX 1080p Latino

Datos de la película

  • Calidad: Full 1080p
  • Audio: Español Latino AC3 5.1 BLURAY - Ingles DTS 5.1 BLURAY
  • Subtitulos: Español Latino PGS - Ingles PGS
  • Resolución: 1920x1080p
  • Formato: MKV
  • Codec: H.264
  • Encoder: CinefiloCool
  • Mediainfo: Clic para Mostrar Datos Ver
  • En La Mira De Los Asesinos (1985) REMUX 1080p Latino-CMHDD.mkv
    Format                      : Matroska
    Format version              : Version 4
    File size                   : 27.5 GiB
    Duration                    : 2 h 11 min
    Overall bit rate mode       : Variable
    Overall bit rate            : 30.0 Mb/s
    Movie name                  : A View To A Kill (1985) CinemaniaHDD.Net
    Encoded date                : UTC 2020-06-06 19:10:28
    Writing application         : mkvmerge v46.0.0 ('No Deeper Escape') 64-bit
    Writing library             : libebml v1.3.10 + libmatroska v1.5.2
    Attachments                 : CINEMANIAHD.png

    Video
    ID                          : 1
    Format                      : AVC
    Format/Info                 : Advanced Video Codec
    Format profile              : High@L4.1
    Format settings             : CABAC / 4 Ref Frames
    Format settings, CABAC      : Yes
    Format settings, Reference  : 4 frames
    Format settings, GOP        : M=1, N=12
    Codec ID                    : V_MPEG4/ISO/AVC
    Duration                    : 2 h 11 min
    Bit rate mode               : Variable
    Bit rate                    : 25.3 Mb/s
    Maximum bit rate            : 32.0 Mb/s
    Width                       : 1 920 pixels
    Height                      : 1 080 pixels
    Display aspect ratio        : 16:9
    Frame rate mode             : Constant
    Frame rate                  : 23.976 (24000/1001) FPS
    Color space                 : YUV
    Chroma subsampling          : 4:2:0
    Bit depth                   : 8 bits
    Scan type                   : Progressive
    Bits/(Pixel*Frame)          : 0.508
    Stream size                 : 23.2 GiB (84%)
    Title                       : REMUX 1080p [CinemaniaHDD]
    Language                    : English
    Default                     : Yes
    Forced                      : No

    Audio #1
    ID                          : 2
    Format                      : AC-3
    Format/Info                 : Audio Coding 3
    Commercial name             : Dolby Digital
    Codec ID                    : A_AC3
    Duration                    : 2 h 11 min
    Bit rate mode               : Constant
    Bit rate                    : 448 kb/s
    Channel(s)                  : 6 channels
    Channel layout              : L R C LFE Ls Rs
    Sampling rate               : 48.0 kHz
    Frame rate                  : 31.250 FPS (1536 SPF)
    Compression mode            : Lossy
    Stream size                 : 421 MiB (1%)
    Title                       : Español Latino [CinemaniaHDD]
    Language                    : Spanish
    Service kind                : Complete Main
    Default                     : Yes
    Forced                      : No

    Audio #2
    ID                          : 3
    Format                      : DTS XLL
    Format/Info                 : Digital Theater Systems
    Commercial name             : DTS-HD Master Audio
    Codec ID                    : A_DTS
    Duration                    : 2 h 11 min
    Bit rate mode               : Variable
    Bit rate                    : 4 315 kb/s
    Channel(s)                  : 6 channels
    Channel layout              : C L R Ls Rs LFE
    Sampling rate               : 48.0 kHz
    Frame rate                  : 93.750 FPS (512 SPF)
    Bit depth                   : 24 bits
    Compression mode            : Lossless
    Stream size                 : 3.96 GiB (14%)
    Title                       : Ingles [CinemaniaHDD]
    Language                    : English
    Default                     : No
    Forced                      : No

    Text #1
    ID                          : 4
    Format                      : PGS
    Muxing mode                 : zlib
    Codec ID                    : S_HDMV/PGS
    Codec ID/Info               : Picture based subtitle format used on BDs/HD-DVDs
    Duration                    : 1 h 40 min
    Bit rate                    : 444 b/s
    Count of elements           : 40
    Stream size                 : 326 KiB (0%)
    Title                       : Forzados-PGS [CinemaniaHDD]
    Language                    : Spanish
    Default                     : Yes
    Forced                      : No

    Text #2
    ID                          : 5
    Format                      : PGS
    Muxing mode                 : zlib
    Codec ID                    : S_HDMV/PGS
    Codec ID/Info               : Picture based subtitle format used on BDs/HD-DVDs
    Duration                    : 2 h 11 min
    Bit rate                    : 23.6 kb/s
    Count of elements           : 2064
    Stream size                 : 22.1 MiB (0%)
    Title                       : Español-PGS [CinemaniaHDD]
    Language                    : Spanish
    Default                     : No
    Forced                      : No

    Text #3
    ID                          : 6
    Format                      : PGS
    Muxing mode                 : zlib
    Codec ID                    : S_HDMV/PGS
    Codec ID/Info               : Picture based subtitle format used on BDs/HD-DVDs
    Duration                    : 2 h 5 min
    Bit rate                    : 22.1 kb/s
    Count of elements           : 1756
    Stream size                 : 20.0 MiB (0%)
    Title                       : Ingles-PGS [CinemaniaHDD]
    Language                    : English
    Default                     : No
    Forced                      : No

    Text #4
    ID                          : 7
    Format                      : UTF-8
    Codec ID                    : S_TEXT/UTF8
    Codec ID/Info               : UTF-8 Plain Text
    Duration                    : 2 h 10 min
    Bit rate                    : 0 b/s
    Count of elements           : 26
    Stream size                 : 759 Bytes (0%)
    Title                       : Forzados-SRT [CinemaniaHDD]
    Language                    : Spanish
    Default                     : No
    Forced                      : No

    Text #5
    ID                          : 8
    Format                      : UTF-8
    Codec ID                    : S_TEXT/UTF8
    Codec ID/Info               : UTF-8 Plain Text
    Duration                    : 2 h 8 min
    Bit rate                    : 39 b/s
    Count of elements           : 1024
    Stream size                 : 37.5 KiB (0%)
    Title                       : Español-SRT [CinemaniaHDD]
    Language                    : Spanish
    Default                     : No
    Forced                      : No

    Menu
    00:00:00.000                : en:Chapter 1
    00:06:15.666                : en:Chapter 2
    00:09:39.996                : en:Chapter 3
    00:12:45.639                : en:Chapter 4
    00:15:23.881                : en:Chapter 5
    00:18:01.789                : en:Chapter 6
    00:22:05.574                : en:Chapter 7
    00:25:28.944                : en:Chapter 8
    00:29:10.623                : en:Chapter 9
    00:35:42.932                : en:Chapter 10
    00:39:13.684                : en:Chapter 11
    00:40:42.314                : en:Chapter 12
    00:41:50.883                : en:Chapter 13
    00:44:01.847                : en:Chapter 14
    00:47:18.710                : en:Chapter 15
    00:52:23.056                : en:Chapter 16
    00:54:15.627                : en:Chapter 17
    00:55:52.682                : en:Chapter 18
    00:58:40.350                : en:Chapter 19
    01:01:58.381                : en:Chapter 20
    01:06:47.003                : en:Chapter 21
    01:12:54.787                : en:Chapter 22
    01:17:13.754                : en:Chapter 23
    01:21:08.280                : en:Chapter 24
    01:24:10.211                : en:Chapter 25
    01:33:21.053                : en:Chapter 26
    01:39:17.117                : en:Chapter 27
    01:42:06.245                : en:Chapter 28
    01:46:55.742                : en:Chapter 29
    01:53:22.504                : en:Chapter 30
    01:59:27.660                : en:Chapter 31
    02:08:39.795                : en:Chapter 32

  • Peso: 27.5 GiB

Sinopsis

Descargar James Bond: En la Mira de los Asesinos (1985) REMUX 1080p Latino. Bond recibe la misión de desenmascarar a Max Zorin, un misterioso empresario, y aparente espía de la KGB, que amenaza con dominar el mundo por medio de sus revolucionarios microchips. Aliado a poderosas empresas de tecnología punta, su objetivo es destruir la falla de San Andrés, provocando un terremoto de irreversibles consecuencias.

Ficha técnica

Video trailer de la película

Enlaces de descarga

Rip de Bluray

Descargar James Bond: En la Mira de los Asesinos (1985) REMUX 1080p Latino




Aportes de DPeliculasHDmega la pass es:dpeliculashdmega.org Aportes de CinemaniaHD la pass es:cinemaniahdd.com
Guardado en : Acción , Aventura , Remux , Suspenso

Películas relacionadas

  • Zola (2020) REMUX 1080p Latino

    Zola (2020) REMUX 1080p Latino

    2020
    Zola (2020) REMUX 1080p Latino

    1h 26m 2020

    Descargar Zola (2020) REMUX 1080p Latino. Una camarera accede a acompañar a una bailarina exótica,...

    Director: Sheri Davani

    Género: Comedia

    Actores: Ts Madison

  • Hocus Pocus: Abracadabra (1993) REMUX 1080p Latino

    Hocus Pocus: Abracadabra (1993) REMUX 1080p Latino

    1993
    Hocus Pocus: Abracadabra (1993) REMUX 1080p Latino

    1h 36m 1993

    Descargar Hocus Pocus: Abracadabra (1993) REMUX 1080p Latino. Tres brujas del siglo XII son invocadas...

    Director: Kenny Ortega

    Género: Comedia

    Actores: Vinessa Shaw

  • DC Liga De Supermascotas (2022) HD 1080p Latino

    DC Liga De Supermascotas (2022) HD 1080p Latino

    2022
    DC Liga De Supermascotas (2022) HD 1080p Latino

    1h 45m 2022

    Descargar DC Liga De Supermascotas (2022) HD 1080p Latino. Krypto el Superperro y Superman son amigos...

    Director: Sam Levine

    Género: Acción

    Actores: Yvette Nicole Brown

descargar James Bond: En la Mira de los Asesinos (1985) REMUX 1080p Latino Full 1080p 1080p gratis, James Bond: En la Mira de los Asesinos (1985) REMUX 1080p Latino Full 1080p mega 1 link, James Bond: En la Mira de los Asesinos (1985) REMUX 1080p Latino Full 1080p pelicula completa, descargar James Bond: En la Mira de los Asesinos (1985) REMUX 1080p Latino Full 1080p gratis en mega.

James Bond: En la Mira de los Asesinos (1985) REMUX 1080p Latino pelicula full hd, James Bond: En la Mira de los Asesinos (1985) REMUX 1080p Latino mega latino, James Bond: En la Mira de los Asesinos (1985) REMUX 1080p Latino 4k latino, James Bond: En la Mira de los Asesinos (1985) REMUX 1080p Latino pelicula completa, James Bond: En la Mira de los Asesinos (1985) REMUX 1080p Latino descargar gratis, descargar James Bond: En la Mira de los Asesinos (1985) REMUX 1080p Latino pelicula latino, James Bond: En la Mira de los Asesinos (1985) REMUX 1080p Latino 1 link mega, James Bond: En la Mira de los Asesinos (1985) REMUX 1080p Latino 1 link google drive, James Bond: En la Mira de los Asesinos (1985) REMUX 1080p Latino hd 1080p latino.
Comentarios 0