×

¿Problemas para descargar con Mozilla, EDGE? Deshabilita la opción "Abrir vinculos en una pestaña nueva" tal como lo muestra ésta imagen.

James Bond: En la Mira de los Asesinos (1985) 1080p Latino

482 vistas

Información de James Bond: En la Mira de los Asesinos (1985) 1080p Latino

Datos de la película

  • Calidad: 1080p
  • Audio: Español Latino AC3 5.1 BLURAY - Ingles AC3 5.1 BLURAY
  • Subtitulos: Español Latino SRT - Ingles SRT
  • Resolución: 1920x818p
  • Formato: MKV
  • Codec: H.264
  • Encoder: CinefiloCool
  • Mediainfo: Clic para Mostrar Datos Ver
  • En La Mira De Los Asesinos (1985) 1080p Latino-CMHDD.mkv
    Format                      : Matroska
    Format version              : Version 4
    File size                   : 4.76 GiB
    Duration                    : 2 h 11 min
    Overall bit rate mode       : Variable
    Overall bit rate            : 5 186 kb/s
    Movie name                  : A View To A Kill (1985) CinemaniaHDD.Net
    Encoded date                : UTC 2020-06-06 19:16:29
    Writing application         : mkvmerge v46.0.0 ('No Deeper Escape') 64-bit
    Writing library             : libebml v1.3.10 + libmatroska v1.5.2
    Attachments                 : CINEMANIAHD.png

    Video
    ID                          : 1
    Format                      : AVC
    Format/Info                 : Advanced Video Codec
    Format profile              : High@L4
    Format settings             : CABAC / 3 Ref Frames
    Format settings, CABAC      : Yes
    Format settings, Reference  : 3 frames
    Codec ID                    : V_MPEG4/ISO/AVC
    Duration                    : 2 h 11 min
    Bit rate mode               : Variable
    Bit rate                    : 4 096 kb/s
    Width                       : 1 920 pixels
    Height                      : 818 pixels
    Display aspect ratio        : 2.35:1
    Frame rate mode             : Constant
    Frame rate                  : 23.976 (24000/1001) FPS
    Color space                 : YUV
    Chroma subsampling          : 4:2:0
    Bit depth                   : 8 bits
    Scan type                   : Progressive
    Bits/(Pixel*Frame)          : 0.109
    Stream size                 : 3.76 GiB (79%)
    Title                       : HD1080p [CinemaniaHDD]
    Writing library             : x264 core 142 r2479 dd79a61
    Encoding settings           : cabac=1 / ref=3 / deblock=1:0:0 / analyse=0x3:0x113 / me=hex / subme=7 / psy=1 / psy_rd=1.00:0.00 / mixed_ref=1 / me_range=16 / chroma_me=1 / trellis=1 / 8x8dct=1 / cqm=0 / deadzone=21,11 / fast_pskip=1 / chroma_qp_offset=-2 / threads=6 / lookahead_threads=1 / sliced_threads=0 / nr=0 / decimate=1 / interlaced=0 / bluray_compat=0 / constrained_intra=0 / bframes=3 / b_pyramid=0 / b_adapt=1 / b_bias=0 / direct=1 / weightb=1 / open_gop=0 / weightp=2 / keyint=240 / keyint_min=24 / scenecut=40 / intra_refresh=0 / rc_lookahead=40 / rc=2pass / mbtree=1 / bitrate=4096 / ratetol=1.0 / qcomp=0.60 / qpmin=0 / qpmax=69 / qpstep=4 / cplxblur=20.0 / qblur=0.5 / vbv_maxrate=25000 / vbv_bufsize=25000 / nal_hrd=vbr / filler=0 / ip_ratio=1.40 / aq=1:1.00
    Default                     : Yes
    Forced                      : No

    Audio #1
    ID                          : 2
    Format                      : AC-3
    Format/Info                 : Audio Coding 3
    Commercial name             : Dolby Digital
    Codec ID                    : A_AC3
    Duration                    : 2 h 11 min
    Bit rate mode               : Constant
    Bit rate                    : 448 kb/s
    Channel(s)                  : 6 channels
    Channel layout              : L R C LFE Ls Rs
    Sampling rate               : 48.0 kHz
    Frame rate                  : 31.250 FPS (1536 SPF)
    Compression mode            : Lossy
    Stream size                 : 421 MiB (9%)
    Title                       : Español Latino [CinemaniaHDD]
    Language                    : Spanish
    Service kind                : Complete Main
    Default                     : Yes
    Forced                      : No

    Audio #2
    ID                          : 3
    Format                      : AC-3
    Format/Info                 : Audio Coding 3
    Commercial name             : Dolby Digital
    Codec ID                    : A_AC3
    Duration                    : 2 h 11 min
    Bit rate mode               : Constant
    Bit rate                    : 640 kb/s
    Channel(s)                  : 6 channels
    Channel layout              : L R C LFE Ls Rs
    Sampling rate               : 48.0 kHz
    Frame rate                  : 31.250 FPS (1536 SPF)
    Compression mode            : Lossy
    Stream size                 : 601 MiB (12%)
    Title                       : Ingles [CinemaniaHDD]
    Language                    : English
    Service kind                : Complete Main
    Default                     : No
    Forced                      : No

    Text #1
    ID                          : 4
    Format                      : UTF-8
    Codec ID                    : S_TEXT/UTF8
    Codec ID/Info               : UTF-8 Plain Text
    Duration                    : 2 h 10 min
    Bit rate                    : 0 b/s
    Count of elements           : 26
    Stream size                 : 759 Bytes (0%)
    Title                       : Forzados-SRT [CinemaniaHDD]
    Language                    : Spanish
    Default                     : Yes
    Forced                      : No

    Text #2
    ID                          : 5
    Format                      : UTF-8
    Codec ID                    : S_TEXT/UTF8
    Codec ID/Info               : UTF-8 Plain Text
    Duration                    : 2 h 8 min
    Bit rate                    : 39 b/s
    Count of elements           : 1024
    Stream size                 : 37.5 KiB (0%)
    Title                       : Español-SRT [CinemaniaHDD]
    Language                    : Spanish
    Default                     : No
    Forced                      : No

    Text #3
    ID                          : 6
    Format                      : UTF-8
    Codec ID                    : S_TEXT/UTF8
    Codec ID/Info               : UTF-8 Plain Text
    Duration                    : 2 h 10 min
    Bit rate                    : 39 b/s
    Count of elements           : 1074
    Stream size                 : 37.6 KiB (0%)
    Title                       : Ingles-SRT [CinemaniaHDD]
    Language                    : English
    Default                     : No
    Forced                      : No

    Menu
    00:00:00.000                : :Chapter 1
    00:06:15.667                : :Chapter 2
    00:09:39.996                : :Chapter 3
    00:12:45.640                : :Chapter 4
    00:15:23.881                : :Chapter 5
    00:18:01.789                : :Chapter 6
    00:22:05.574                : :Chapter 7
    00:25:28.944                : :Chapter 8
    00:29:10.624                : :Chapter 9
    00:35:42.932                : :Chapter 10
    00:39:13.685                : :Chapter 11
    00:40:42.315                : :Chapter 12
    00:41:50.883                : :Chapter 13
    00:44:01.848                : :Chapter 14
    00:47:18.711                : :Chapter 15
    00:52:23.057                : :Chapter 16
    00:54:15.627                : :Chapter 17
    00:55:52.683                : :Chapter 18
    00:58:40.350                : :Chapter 19
    01:01:58.381                : :Chapter 20
    01:06:47.003                : :Chapter 21
    01:12:54.787                : :Chapter 22
    01:17:13.754                : :Chapter 23
    01:21:08.280                : :Chapter 24
    01:24:10.212                : :Chapter 25
    01:33:21.054                : :Chapter 26
    01:39:17.118                : :Chapter 27
    01:42:06.245                : :Chapter 28
    01:46:55.743                : :Chapter 29
    01:53:22.504                : :Chapter 30
    01:59:27.661                : :Chapter 31
    02:08:39.795                : :Chapter 32

  • Peso: 4.76 GiB

Sinopsis

Descargar James Bond: En la Mira de los Asesinos (1985) 1080p Latino. Bond recibe la misión de desenmascarar a Max Zorin, un misterioso empresario, y aparente espía de la KGB, que amenaza con dominar el mundo por medio de sus revolucionarios microchips. Aliado a poderosas empresas de tecnología punta, su objetivo es destruir la falla de San Andrés, provocando un terremoto de irreversibles consecuencias.

Ficha técnica

Video trailer de la película

Enlaces de descarga

Rip de Bluray

Descargar James Bond: En la Mira de los Asesinos (1985) 1080p Latino




Aportes de DPeliculasHDmega la pass es:dpeliculashdmega.org Aportes de CinemaniaHD la pass es:cinemaniahdd.com
Guardado en : Acción , Aventura , HD 1080p , Suspenso

Películas relacionadas

  • Mi amigo el dragón (2016) Full HD 1080p Latino

    Mi amigo el dragón (2016) Full HD 1080p Latino

    2016
    Mi amigo el dragón (2016) Full HD 1080p Latino

    1h 43m 2016

    Descargar Mi amigo el dragón (2016) Full HD 1080p Latino. Durante años el Sr. Meacham, un viejo tallador...

    Director: Joe Nolan

    Género: Aventura

    Actores: William J. Rawbone

  • Mi amigo el dragón (2016) REMUX 1080p Latino

    Mi amigo el dragón (2016) REMUX 1080p Latino

    2016
    Mi amigo el dragón (2016) REMUX 1080p Latino

    1h 43m 2016

    Descargar Mi amigo el dragón (2016) REMUX 1080p Latino. Durante años el Sr. Meacham, un viejo tallador...

    Director: Joe Nolan

    Género: Aventura

    Actores: William J. Rawbone

  • El discurso del Rey (2010) 1080p Latino

    El discurso del Rey (2010) 1080p Latino

    2010
    El discurso del Rey (2010) 1080p Latino

    1h 58m 2010

    Descargar El discurso del Rey (2010) 1080p Latino. El duque de York se convirtió en rey de Gran Bretaña...

    Director: Tom Hooper

    Género: Drama

    Actores: Tony Earnshaw

  • Lucy (2014) REMUX 4K HDR Latino – CMHDD

    Lucy (2014) REMUX 4K HDR Latino – CMHDD

    2014
    Lucy (2014) REMUX 4K HDR Latino – CMHDD

    1h 30m 2014

    Lucy, una joven obligada a ejercer de mula de una nueva y potente droga, adquiere de repente enormes...

    Director: Luc Besson

    Género: Acción

    Actores: Wolfgang Pissors

descargar James Bond: En la Mira de los Asesinos (1985) 1080p Latino 1080p 1080p gratis, James Bond: En la Mira de los Asesinos (1985) 1080p Latino 1080p mega 1 link, James Bond: En la Mira de los Asesinos (1985) 1080p Latino 1080p pelicula completa, descargar James Bond: En la Mira de los Asesinos (1985) 1080p Latino 1080p gratis en mega.

James Bond: En la Mira de los Asesinos (1985) 1080p Latino pelicula full hd, James Bond: En la Mira de los Asesinos (1985) 1080p Latino mega latino, James Bond: En la Mira de los Asesinos (1985) 1080p Latino 4k latino, James Bond: En la Mira de los Asesinos (1985) 1080p Latino pelicula completa, James Bond: En la Mira de los Asesinos (1985) 1080p Latino descargar gratis, descargar James Bond: En la Mira de los Asesinos (1985) 1080p Latino pelicula latino, James Bond: En la Mira de los Asesinos (1985) 1080p Latino 1 link mega, James Bond: En la Mira de los Asesinos (1985) 1080p Latino 1 link google drive, James Bond: En la Mira de los Asesinos (1985) 1080p Latino hd 1080p latino.
Comentarios 0