×

¿Problemas para descargar con Mozilla, EDGE? Deshabilita la opción "Abrir vinculos en una pestaña nueva" tal como lo muestra ésta imagen.

James Bond: En la Mira de los Asesinos (1985) Full HD 1080p Latino

1.039 vistas

Información de James Bond: En la Mira de los Asesinos (1985) Full HD 1080p Latino

Datos de la película

  • Calidad: Full 1080p
  • Audio: Español Latino AC3 5.1 BLURAY - Ingles DTS 5.1 BLURAY
  • Subtitulos: Español Latino PGS - Ingles PGS
  • Resolución: 1920x1080p
  • Formato: MKV
  • Codec: H.264
  • Encoder: Dracarys
  • Mediainfo: Clic para Mostrar Datos Ver
  • En La Mira De Los Asesinos (1985) Full HD 1080p Latino-CMHDD.mkv
    Format                      : Matroska
    Format version              : Version 4
    File size                   : 8.45 GiB
    Duration                    : 2 h 11 min
    Overall bit rate            : 9 207 kb/s
    Movie name                  : A View To A Kill (1985) CinemaniaHDD.Net
    Encoded date                : UTC 2020-06-06 19:03:52
    Writing application         : mkvmerge v46.0.0 ('No Deeper Escape') 64-bit
    Writing library             : libebml v1.3.10 + libmatroska v1.5.2
    Attachments                 : CINEMANIAHD.png

    Video
    ID                          : 1
    Format                      : AVC
    Format/Info                 : Advanced Video Codec
    Format profile              : High@L4.1
    Format settings             : CABAC / 4 Ref Frames
    Format settings, CABAC      : Yes
    Format settings, Reference  : 4 frames
    Codec ID                    : V_MPEG4/ISO/AVC
    Duration                    : 2 h 11 min
    Bit rate                    : 7 234 kb/s
    Width                       : 1 920 pixels
    Height                      : 1 080 pixels
    Display aspect ratio        : 16:9
    Frame rate mode             : Constant
    Frame rate                  : 23.976 (24000/1001) FPS
    Color space                 : YUV
    Chroma subsampling          : 4:2:0
    Bit depth                   : 8 bits
    Scan type                   : Progressive
    Bits/(Pixel*Frame)          : 0.145
    Stream size                 : 6.63 GiB (79%)
    Title                       : Full HD1080p [CinemaniaHDD]
    Writing library             : x264 core 148 r2708 86b7198
    Encoding settings           : cabac=1 / ref=4 / deblock=1:0:0 / analyse=0x3:0x133 / me=esa / subme=10 / psy=1 / psy_rd=1.00:0.00 / mixed_ref=1 / me_range=24 / chroma_me=1 / trellis=2 / 8x8dct=1 / cqm=0 / deadzone=21,11 / fast_pskip=1 / chroma_qp_offset=-2 / threads=34 / lookahead_threads=5 / sliced_threads=0 / nr=0 / decimate=1 / interlaced=0 / bluray_compat=0 / constrained_intra=0 / bframes=8 / b_pyramid=2 / b_adapt=2 / b_bias=0 / direct=3 / weightb=1 / open_gop=0 / weightp=2 / keyint=240 / keyint_min=24 / scenecut=40 / intra_refresh=0 / rc_lookahead=60 / rc=crf / mbtree=1 / crf=20.0 / qcomp=0.60 / qpmin=0 / qpmax=69 / qpstep=4 / vbv_maxrate=62500 / vbv_bufsize=78125 / crf_max=0.0 / nal_hrd=none / filler=0 / ip_ratio=1.40 / aq=1:1.00
    Language                    : English
    Default                     : Yes
    Forced                      : No
    Color range                 : Limited
    Color primaries             : BT.709
    Transfer characteristics    : BT.709
    Matrix coefficients         : BT.709

    Audio #1
    ID                          : 2
    Format                      : AC-3
    Format/Info                 : Audio Coding 3
    Commercial name             : Dolby Digital
    Codec ID                    : A_AC3
    Duration                    : 2 h 11 min
    Bit rate mode               : Constant
    Bit rate                    : 448 kb/s
    Channel(s)                  : 6 channels
    Channel layout              : L R C LFE Ls Rs
    Sampling rate               : 48.0 kHz
    Frame rate                  : 31.250 FPS (1536 SPF)
    Compression mode            : Lossy
    Stream size                 : 421 MiB (5%)
    Title                       : Español Latino [CinemaniaHDD]
    Language                    : Spanish
    Service kind                : Complete Main
    Default                     : Yes
    Forced                      : No

    Audio #2
    ID                          : 3
    Format                      : DTS
    Format/Info                 : Digital Theater Systems
    Codec ID                    : A_DTS
    Duration                    : 2 h 11 min
    Bit rate mode               : Constant
    Bit rate                    : 1 509 kb/s
    Channel(s)                  : 6 channels
    Channel layout              : C L R Ls Rs LFE
    Sampling rate               : 48.0 kHz
    Frame rate                  : 93.750 FPS (512 SPF)
    Bit depth                   : 24 bits
    Compression mode            : Lossy
    Stream size                 : 1.38 GiB (16%)
    Title                       : Ingles [CinemaniaHDD]
    Language                    : English
    Default                     : No
    Forced                      : No

    Text #1
    ID                          : 4
    Format                      : PGS
    Muxing mode                 : zlib
    Codec ID                    : S_HDMV/PGS
    Codec ID/Info               : Picture based subtitle format used on BDs/HD-DVDs
    Duration                    : 1 h 40 min
    Bit rate                    : 444 b/s
    Count of elements           : 40
    Stream size                 : 326 KiB (0%)
    Title                       : Forzados-PGS [CinemaniaHDD]
    Language                    : Spanish
    Default                     : Yes
    Forced                      : No

    Text #2
    ID                          : 5
    Format                      : PGS
    Muxing mode                 : zlib
    Codec ID                    : S_HDMV/PGS
    Codec ID/Info               : Picture based subtitle format used on BDs/HD-DVDs
    Duration                    : 2 h 11 min
    Bit rate                    : 23.6 kb/s
    Count of elements           : 2064
    Stream size                 : 22.1 MiB (0%)
    Title                       : Español-PGS [CinemaniaHDD]
    Language                    : Spanish
    Default                     : No
    Forced                      : No

    Text #3
    ID                          : 6
    Format                      : PGS
    Muxing mode                 : zlib
    Codec ID                    : S_HDMV/PGS
    Codec ID/Info               : Picture based subtitle format used on BDs/HD-DVDs
    Duration                    : 2 h 10 min
    Bit rate                    : 24.5 kb/s
    Count of elements           : 2150
    Stream size                 : 22.9 MiB (0%)
    Title                       : Ingles-PGS [CinemaniaHDD]
    Language                    : English
    Default                     : No
    Forced                      : No

    Text #4
    ID                          : 7
    Format                      : UTF-8
    Codec ID                    : S_TEXT/UTF8
    Codec ID/Info               : UTF-8 Plain Text
    Duration                    : 2 h 10 min
    Bit rate                    : 0 b/s
    Count of elements           : 26
    Stream size                 : 759 Bytes (0%)
    Title                       : Forzados-SRT [CinemaniaHDD]
    Language                    : Spanish
    Default                     : No
    Forced                      : No

    Text #5
    ID                          : 8
    Format                      : UTF-8
    Codec ID                    : S_TEXT/UTF8
    Codec ID/Info               : UTF-8 Plain Text
    Duration                    : 2 h 8 min
    Bit rate                    : 39 b/s
    Count of elements           : 1024
    Stream size                 : 37.5 KiB (0%)
    Title                       : Español-SRT [CinemaniaHDD]
    Language                    : Spanish
    Default                     : No
    Forced                      : No

    Menu
    00:00:00.000                : :Chapter 1
    00:06:15.667                : :Chapter 2
    00:09:39.996                : :Chapter 3
    00:12:45.640                : :Chapter 4
    00:15:23.881                : :Chapter 5
    00:18:01.789                : :Chapter 6
    00:22:05.574                : :Chapter 7
    00:25:28.944                : :Chapter 8
    00:29:10.624                : :Chapter 9
    00:35:42.932                : :Chapter 10
    00:39:13.685                : :Chapter 11
    00:40:42.315                : :Chapter 12
    00:41:50.883                : :Chapter 13
    00:44:01.848                : :Chapter 14
    00:47:18.711                : :Chapter 15
    00:52:23.057                : :Chapter 16
    00:54:15.627                : :Chapter 17
    00:55:52.683                : :Chapter 18
    00:58:40.350                : :Chapter 19
    01:01:58.381                : :Chapter 20
    01:06:47.003                : :Chapter 21
    01:12:54.787                : :Chapter 22
    01:17:13.754                : :Chapter 23
    01:21:08.280                : :Chapter 24
    01:24:10.212                : :Chapter 25
    01:33:21.054                : :Chapter 26
    01:39:17.118                : :Chapter 27
    01:42:06.245                : :Chapter 28
    01:46:55.743                : :Chapter 29
    01:53:22.504                : :Chapter 30
    01:59:27.661                : :Chapter 31
    02:08:39.795                : :Chapter 32

  • Peso: 8.45 GiB

Sinopsis

Descargar James Bond: En la Mira de los Asesinos (1985) Full HD 1080p Latino. Bond recibe la misión de desenmascarar a Max Zorin, un misterioso empresario, y aparente espía de la KGB, que amenaza con dominar el mundo por medio de sus revolucionarios microchips. Aliado a poderosas empresas de tecnología punta, su objetivo es destruir la falla de San Andrés, provocando un terremoto de irreversibles consecuencias.

RESUBIDO!

Ficha técnica

Video trailer de la película

Enlaces de descarga

Rip de Bluray

Descargar James Bond: En la Mira de los Asesinos (1985) Full HD 1080p Latino




Aportes de DPeliculasHDmega la pass es:dpeliculashdmega.org Aportes de CinemaniaHD la pass es:cinemaniahdd.com

Películas relacionadas

  • Borrego: Sal Del Camino (2022) HD 1080p Latino

    Borrego: Sal Del Camino (2022) HD 1080p Latino

    2022
    Borrego: Sal Del Camino (2022) HD 1080p Latino

    1h 42m 2022

    Descargar Borrego: Sal Del Camino (2022) HD 1080p Latino. Una joven botánica se traslada a un pequeño...

    Director: Jesse Harris

    Género: Crimen

    Actores: Olivia Trujillo

  • Borrego: Sal Del Camino (2022) REMUX 1080p Latino

    Borrego: Sal Del Camino (2022) REMUX 1080p Latino

    2022
    Borrego: Sal Del Camino (2022) REMUX 1080p Latino

    1h 42m 2022

    Descargar Borrego: Sal Del Camino (2022) REMUX 1080p Latino. Una joven botánica se traslada a un pequeño...

    Director: Jesse Harris

    Género: Crimen

    Actores: Olivia Trujillo

  • Tren Bala (2022) WEB-DL 4K UHD HDR Latino

    Tren Bala (2022) WEB-DL 4K UHD HDR Latino

    2022
    Tren Bala (2022) WEB-DL 4K UHD HDR Latino

    2h 7m 2022

    Descargar Tren Bala (2022) WEB-DL 4K UHD HDR Latino. El desafortunado asesino "Catarina" está decidido...

    Director: Paul Barry

    Género: 4K HDR

    Actores: Zooey Miyoshi

  • Tren Bala (2022) AMZN WEB-DL 1080p Latino

    Tren Bala (2022) AMZN WEB-DL 1080p Latino

    2022
    Tren Bala (2022) AMZN WEB-DL 1080p Latino

    2h 7m 2022

    Descargar Tren Bala (2022) AMZN WEB-DL 1080p Latino. Cinco asesinos a sueldo se encuentran a bordo de...

    Director: Paul Barry

    Género: Acción

    Actores: Zooey Miyoshi

descargar James Bond: En la Mira de los Asesinos (1985) Full HD 1080p Latino Full 1080p 1080p gratis, James Bond: En la Mira de los Asesinos (1985) Full HD 1080p Latino Full 1080p mega 1 link, James Bond: En la Mira de los Asesinos (1985) Full HD 1080p Latino Full 1080p pelicula completa, descargar James Bond: En la Mira de los Asesinos (1985) Full HD 1080p Latino Full 1080p gratis en mega.

James Bond: En la Mira de los Asesinos (1985) Full HD 1080p Latino pelicula full hd, James Bond: En la Mira de los Asesinos (1985) Full HD 1080p Latino mega latino, James Bond: En la Mira de los Asesinos (1985) Full HD 1080p Latino 4k latino, James Bond: En la Mira de los Asesinos (1985) Full HD 1080p Latino pelicula completa, James Bond: En la Mira de los Asesinos (1985) Full HD 1080p Latino descargar gratis, descargar James Bond: En la Mira de los Asesinos (1985) Full HD 1080p Latino pelicula latino, James Bond: En la Mira de los Asesinos (1985) Full HD 1080p Latino 1 link mega, James Bond: En la Mira de los Asesinos (1985) Full HD 1080p Latino 1 link google drive, James Bond: En la Mira de los Asesinos (1985) Full HD 1080p Latino hd 1080p latino.
Comentarios 1
  • ocpgaiden - 26 julio, 2018

    gracias por en la mira delos asesinos, saludos