×

¿Problemas para descargar con Mozilla, EDGE? Deshabilita la opción "Abrir vinculos en una pestaña nueva" tal como lo muestra ésta imagen.

A Very Harold & Kumar Christmas (2011) REMUX 1080p Latino – CMHDD

98 vistas

Información de A Very Harold & Kumar Christmas (2011) REMUX 1080p Latino – CMHDD

Datos de la película

  • Calidad:
  • Audio: Español Latino AC3 5.1 BLURAY - Ingles DTS 5.1 BLURAY
  • Subtitulos: Español Latino PGS
  • Resolución: 1920x1080p
  • Formato: MKV
  • Codec: H.264
  • Encoder: Dracarys
  • Mediainfo: Clic para Mostrar Datos Ver
  • Format                      : Matroska
    Format version              : Version 4
    File size                   : 16.8 GiB
    Duration                    : 1 h 29 min
    Overall bit rate mode       : Variable
    Overall bit rate            : 26.8 Mb/s
    Movie name                  : A Very Harold & Kumar Christmas (2011) REMUX 1080p Latino - CMHDD
    Encoded date                : UTC 2021-12-10 02:58:25
    Writing application         : mkvmerge v17.0.0 ('Be Ur Friend') 64-bit
    Writing library             : libebml v1.3.5 + libmatroska v1.4.8

    Video
    ID                          : 1
    Format                      : AVC
    Format/Info                 : Advanced Video Codec
    Format profile              : High@L4.1
    Format settings             : CABAC / 2 Ref Frames
    Format settings, CABAC      : Yes
    Format settings, Reference  : 2 frames
    Format settings, GOP        : M=1, N=10
    Codec ID                    : V_MPEG4/ISO/AVC
    Duration                    : 1 h 29 min
    Bit rate mode               : Variable
    Bit rate                    : 22.3 Mb/s
    Width                       : 1 920 pixels
    Height                      : 1 080 pixels
    Display aspect ratio        : 16:9
    Frame rate mode             : Constant
    Frame rate                  : 23.976 (24000/1001) FPS
    Color space                 : YUV
    Chroma subsampling          : 4:2:0
    Bit depth                   : 8 bits
    Scan type                   : Progressive
    Bits/(Pixel*Frame)          : 0.448
    Stream size                 : 13.9 GiB (83%)
    Default                     : Yes
    Forced                      : No

    Audio #1
    ID                          : 2
    Format                      : DTS XLL
    Format/Info                 : Digital Theater Systems
    Commercial name             : DTS-HD Master Audio
    Codec ID                    : A_DTS
    Duration                    : 1 h 29 min
    Bit rate mode               : Variable
    Bit rate                    : 3 920 kb/s
    Channel(s)                  : 6 channels
    Channel layout              : C L R Ls Rs LFE
    Sampling rate               : 48.0 kHz
    Frame rate                  : 93.750 FPS (512 SPF)
    Bit depth                   : 24 bits
    Compression mode            : Lossless
    Stream size                 : 2.45 GiB (15%)
    Language                    : English
    Default                     : No
    Forced                      : No

    Audio #2
    ID                          : 3
    Format                      : AC-3
    Format/Info                 : Audio Coding 3
    Commercial name             : Dolby Digital
    Codec ID                    : A_AC3
    Duration                    : 1 h 29 min
    Bit rate mode               : Constant
    Bit rate                    : 640 kb/s
    Channel(s)                  : 6 channels
    Channel layout              : L R C LFE Ls Rs
    Sampling rate               : 48.0 kHz
    Frame rate                  : 31.250 FPS (1536 SPF)
    Compression mode            : Lossy
    Stream size                 : 410 MiB (2%)
    Language                    : Spanish
    Service kind                : Complete Main
    Default                     : Yes
    Forced                      : No

    Text #1
    ID                          : 4
    Format                      : PGS
    Muxing mode                 : zlib
    Codec ID                    : S_HDMV/PGS
    Codec ID/Info               : Picture based subtitle format used on BDs/HD-DVDs
    Duration                    : 1 h 28 min
    Bit rate                    : 41.9 kb/s
    Count of elements           : 3408
    Stream size                 : 26.5 MiB (0%)
    Language                    : Spanish
    Default                     : No
    Forced                      : No

    Text #2
    ID                          : 5
    Format                      : PGS
    Muxing mode                 : zlib
    Codec ID                    : S_HDMV/PGS
    Codec ID/Info               : Picture based subtitle format used on BDs/HD-DVDs
    Duration                    : 1 h 28 min
    Bit rate                    : 501 b/s
    Count of elements           : 40
    Stream size                 : 326 KiB (0%)
    Language                    : Spanish
    Default                     : No
    Forced                      : No

    Menu
    00:00:00.000                : en:Chapter 1
    00:09:31.779                : en:Chapter 2
    00:21:44.594                : en:Chapter 3
    00:30:48.555                : en:Chapter 4
    00:39:23.027                : en:Chapter 5
    00:49:27.798                : en:Chapter 6
    01:00:44.349                : en:Chapter 7
    01:09:09.186                : en:Chapter 8
    01:21:18.164                : en:Chapter 9

  • Peso: 16.8 GiB

Sinopsis

Seis años después de su aventura en la Bahía Guantánamo, Harold Lee y Kumar Patel causan una crisis navideña cuando sin querer incendian el árbol de Navidad del padre de Maria, la esposa de Harold. A partir de ese momento su navidad solo se centra en encontrar un árbol idéntico al que Kumar incendió, pero llegar a el será mucho más difícil de lo que ellos creían.

Ficha técnica

  • Titulo original: A Very Harold & Kumar Christmas
  • Fecha de lanzamiento: 04-11-2011 (United States of America)
  • Director: Todd Strauss-Schulson
  • Género: Comedia

Video trailer de la película

Enlaces de descarga

Rip de Bluray

Descargar A Very Harold & Kumar Christmas (2011) REMUX 1080p Latino – CMHDD


Aportes de DPeliculasHDmega la pass es:dpeliculashdmega.org Aportes de CinemaniaHD la pass es:cinemaniahdd.com
Guardado en : Comedia

Películas relacionadas

  • Zola (2020) HD 1080p Latino

    Zola (2020) HD 1080p Latino

    2020
    Zola (2020) HD 1080p Latino

    1h 26m 2020

    Descargar Zola (2020) HD 1080p Latino. Una camarera accede a acompañar a una bailarina exótica, su...

    Director: Sheri Davani

    Género: Comedia

    Actores: Ts Madison

  • Zola (2020) PLACEBO Full HD 1080p Latino

    Zola (2020) PLACEBO Full HD 1080p Latino

    2020
    Zola (2020) PLACEBO Full HD 1080p Latino

    1h 26m 2020

    Descargar Zola (2020) PLACEBO Full HD 1080p Latino. Una camarera accede a acompañar a una bailarina...

    Director: Sheri Davani

    Género: Comedia

    Actores: Ts Madison

  • Zola (2020) REMUX 1080p Latino

    Zola (2020) REMUX 1080p Latino

    2020
    Zola (2020) REMUX 1080p Latino

    1h 26m 2020

    Descargar Zola (2020) REMUX 1080p Latino. Una camarera accede a acompañar a una bailarina exótica,...

    Director: Sheri Davani

    Género: Comedia

    Actores: Ts Madison

descargar A Very Harold & Kumar Christmas (2011) REMUX 1080p Latino – CMHDD 1080p gratis, A Very Harold & Kumar Christmas (2011) REMUX 1080p Latino – CMHDD mega 1 link, A Very Harold & Kumar Christmas (2011) REMUX 1080p Latino – CMHDD pelicula completa, descargar A Very Harold & Kumar Christmas (2011) REMUX 1080p Latino – CMHDD gratis en mega.

A Very Harold & Kumar Christmas (2011) REMUX 1080p Latino – CMHDD pelicula full hd, A Very Harold & Kumar Christmas (2011) REMUX 1080p Latino – CMHDD mega latino, A Very Harold & Kumar Christmas (2011) REMUX 1080p Latino – CMHDD 4k latino, A Very Harold & Kumar Christmas (2011) REMUX 1080p Latino – CMHDD pelicula completa, A Very Harold & Kumar Christmas (2011) REMUX 1080p Latino – CMHDD descargar gratis, descargar A Very Harold & Kumar Christmas (2011) REMUX 1080p Latino – CMHDD pelicula latino, A Very Harold & Kumar Christmas (2011) REMUX 1080p Latino – CMHDD 1 link mega, A Very Harold & Kumar Christmas (2011) REMUX 1080p Latino – CMHDD 1 link google drive, A Very Harold & Kumar Christmas (2011) REMUX 1080p Latino – CMHDD hd 1080p latino.