×

¿Problemas para descargar con Mozilla, EDGE? Deshabilita la opción "Abrir vinculos en una pestaña nueva" tal como lo muestra ésta imagen.

Mil uno (2023) REMUX 1080p Latino-CMHDD

65 vistas

Información de Mil uno (2023) REMUX 1080p Latino-CMHDD

Datos de la película

  • Calidad: Full 1080p
  • Audio: Español Latino DTS 5.1 BLURAY - Ingles DTS-HD 5.1 BLURAY
  • Subtitulos: Español Latino PGS - Ingles PGS
  • Resolución: 1920x1080p
  • Formato: MKV
  • Codec: H.264
  • Encoder: CinefiloCool
  • Mediainfo: Clic para Mostrar Datos Ver
  • A.Thousand.and.One.2023.Bluray.REMUX.1080p.AVC.Latino-CC@CMHDD.mkv
    Format                      : Matroska
    Format version              : Version 4
    File size                   : 20.6 GiB
    Duration                    : 1 h 56 min
    Overall bit rate mode       : Variable
    Overall bit rate            : 25.2 Mb/s
    Movie name                  : A Thousand and One (2023) CinemaniaHDD.Net
    Encoded date                : UTC 2024-01-18 06:02:41
    Writing application         : mkvmerge v56.1.0 ('My Friend') 64-bit
    Writing library             : libebml v1.4.2 + libmatroska v1.6.4
    Attachments                 : CINEMANIAHD.png

    Video
    ID                          : 1
    ID in the original source m : 4113 (0x1011)
    Format                      : AVC
    Format/Info                 : Advanced Video Codec
    Format profile              : High@L4.1
    Format settings             : CABAC / 4 Ref Frames
    Format settings, CABAC      : Yes
    Format settings, Reference  : 4 frames
    Codec ID                    : V_MPEG4/ISO/AVC
    Duration                    : 1 h 56 min
    Bit rate mode               : Variable
    Bit rate                    : 21.3 Mb/s
    Maximum bit rate            : 35.8 Mb/s
    Width                       : 1 920 pixels
    Height                      : 1 080 pixels
    Display aspect ratio        : 16:9
    Frame rate mode             : Constant
    Frame rate                  : 23.976 (24000/1001) FPS
    Color space                 : YUV
    Chroma subsampling          : 4:2:0
    Bit depth                   : 8 bits
    Scan type                   : Progressive
    Bits/(Pixel*Frame)          : 0.428
    Stream size                 : 17.4 GiB (84%)
    Title                       : REMUX HD1080p [CinemaniaHDD]
    Default                     : Yes
    Forced                      : Yes
    Original source medium      : Blu-ray

    Audio #1
    ID                          : 2
    ID in the original source m : 4354 (0x1102)
    Format                      : DTS
    Format/Info                 : Digital Theater Systems
    Codec ID                    : A_DTS
    Duration                    : 1 h 56 min
    Bit rate mode               : Constant
    Bit rate                    : 768 kb/s
    Channel(s)                  : 6 channels
    Channel layout              : C L R Ls Rs LFE
    Sampling rate               : 48.0 kHz
    Frame rate                  : 93.750 FPS (512 SPF)
    Bit depth                   : 24 bits
    Compression mode            : Lossy
    Stream size                 : 642 MiB (3%)
    Title                       : Español Latino [CinemaniaHDD]
    Language                    : Spanish
    Default                     : Yes
    Forced                      : Yes
    Original source medium      : Blu-ray

    Audio #2
    ID                          : 3
    ID in the original source m : 4352 (0x1100)
    Format                      : DTS XLL
    Format/Info                 : Digital Theater Systems
    Commercial name             : DTS-HD Master Audio
    Codec ID                    : A_DTS
    Duration                    : 1 h 56 min
    Bit rate mode               : Variable
    Bit rate                    : 3 129 kb/s
    Channel(s)                  : 6 channels
    Channel layout              : C L R Ls Rs LFE
    Sampling rate               : 48.0 kHz
    Frame rate                  : 93.750 FPS (512 SPF)
    Bit depth                   : 24 bits
    Compression mode            : Lossless
    Stream size                 : 2.55 GiB (12%)
    Title                       : Ingles [CinemaniaHDD]
    Language                    : English
    Default                     : No
    Forced                      : No
    Original source medium      : Blu-ray

    Text #1
    ID                          : 4
    ID in the original source m : 4611 (0x1203)
    Format                      : PGS
    Muxing mode                 : zlib
    Codec ID                    : S_HDMV/PGS
    Codec ID/Info               : Picture based subtitle format used on BDs/HD-DVDs
    Duration                    : 1 h 54 min
    Bit rate                    : 769 b/s
    Count of elements           : 56
    Stream size                 : 648 KiB (0%)
    Title                       : Forzados-PGS [CinemaniaHDD]
    Language                    : Spanish
    Default                     : No
    Forced                      : No
    Original source medium      : Blu-ray

    Text #2
    ID                          : 5
    ID in the original source m : 4610 (0x1202)
    Format                      : PGS
    Muxing mode                 : zlib
    Codec ID                    : S_HDMV/PGS
    Codec ID/Info               : Picture based subtitle format used on BDs/HD-DVDs
    Duration                    : 1 h 55 min
    Bit rate                    : 28.2 kb/s
    Count of elements           : 2650
    Stream size                 : 23.4 MiB (0%)
    Title                       : Español-PGS [CinemaniaHDD]
    Language                    : Spanish
    Default                     : No
    Forced                      : No
    Original source medium      : Blu-ray

    Text #3
    ID                          : 6
    ID in the original source m : 4608 (0x1200)
    Format                      : PGS
    Muxing mode                 : zlib
    Codec ID                    : S_HDMV/PGS
    Codec ID/Info               : Picture based subtitle format used on BDs/HD-DVDs
    Duration                    : 1 h 50 min
    Bit rate                    : 43.7 kb/s
    Count of elements           : 3506
    Stream size                 : 34.5 MiB (0%)
    Title                       : Ingles [CinemaniaHDD]
    Language                    : English
    Default                     : No
    Forced                      : No
    Original source medium      : Blu-ray

    Text #4
    ID                          : 7
    Format                      : UTF-8
    Codec ID                    : S_TEXT/UTF8
    Codec ID/Info               : UTF-8 Plain Text
    Duration                    : 1 h 54 min
    Bit rate                    : 1 b/s
    Count of elements           : 28
    Stream size                 : 973 Bytes (0%)
    Title                       : Forzados-SRT [CinemaniaHDD]
    Language                    : Spanish
    Default                     : Yes
    Forced                      : Yes

    Text #5
    ID                          : 8
    Format                      : UTF-8
    Codec ID                    : S_TEXT/UTF8
    Codec ID/Info               : UTF-8 Plain Text
    Duration                    : 1 h 51 min
    Bit rate                    : 45 b/s
    Count of elements           : 1324
    Stream size                 : 36.9 KiB (0%)
    Title                       : Español-SRT [CinemaniaHDD]
    Language                    : Spanish
    Default                     : No
    Forced                      : No

    Menu
    00:00:00.000                : Chapter 01
    00:05:46.929                : Chapter 02
    00:11:08.209                : Chapter 03
    00:14:44.133                : Chapter 04
    00:19:05.477                : Chapter 05
    00:28:33.211                : Chapter 06
    00:33:18.788                : Chapter 07
    00:37:06.682                : Chapter 08
    00:40:52.116                : Chapter 09
    00:48:21.064                : Chapter 10
    00:53:25.368                : Chapter 11
    01:00:51.522                : Chapter 12
    01:07:15.364                : Chapter 13
    01:16:39.094                : Chapter 14
    01:20:57.978                : Chapter 15
    01:27:54.560                : Chapter 16
    01:35:27.596                : Chapter 17
    01:40:24.268                : Chapter 18
    01:48:39.054                : Chapter 19
    01:50:52.646                : Chapter 20

  • Peso: 20.6 GiB

Sinopsis

Descargar Mil uno (2023) REMUX 1080p Latino-CMHDD. Luchando pero sin disculparse por vivir en sus propios términos, Inez se muda de refugio en refugio a mediados de la década de 1990 en la ciudad de Nueva York. Con su hijo Terry de 6 años en un hogar de acogida y sin poder dejarlo de nuevo, lo secuestra para que puedan construir su vida juntos. A medida que pasan los años, su familia crece y Terry se convierte en un adolescente inteligente pero tranquilo, pero el secreto que ha definido sus vidas amenaza con destruir el hogar que han construido de manera tan improbable.

Ficha técnica

Video trailer de la película

Enlaces de descarga

Rip de Bluray

Descargar Mil uno (2023) REMUX 1080p Latino-CMHDD


Aportes de DPeliculasHDmega la pass es:dpeliculashdmega.org Aportes de CinemaniaHD la pass es:cinemaniahdd.com Aportes recientes:cinemaniahdd.net
Guardado en : Crimen , Drama , Remux

Películas relacionadas

descargar Mil uno (2023) REMUX 1080p Latino-CMHDD Full 1080p 1080p gratis, Mil uno (2023) REMUX 1080p Latino-CMHDD Full 1080p mega 1 link, Mil uno (2023) REMUX 1080p Latino-CMHDD Full 1080p pelicula completa, descargar Mil uno (2023) REMUX 1080p Latino-CMHDD Full 1080p gratis en mega.

Mil uno (2023) REMUX 1080p Latino-CMHDD pelicula full hd, Mil uno (2023) REMUX 1080p Latino-CMHDD mega latino, Mil uno (2023) REMUX 1080p Latino-CMHDD 4k latino, Mil uno (2023) REMUX 1080p Latino-CMHDD pelicula completa, Mil uno (2023) REMUX 1080p Latino-CMHDD descargar gratis, descargar Mil uno (2023) REMUX 1080p Latino-CMHDD pelicula latino, Mil uno (2023) REMUX 1080p Latino-CMHDD 1 link mega, Mil uno (2023) REMUX 1080p Latino-CMHDD 1 link google drive, Mil uno (2023) REMUX 1080p Latino-CMHDD hd 1080p latino.
Comentarios 0