×

¿Problemas para descargar con Mozilla, EDGE? Deshabilita la opción "Abrir vinculos en una pestaña nueva" tal como lo muestra ésta imagen.

Mil uno (2023) Full HD 1080p Latino-CMHDD

95 vistas

Información de Mil uno (2023) Full HD 1080p Latino-CMHDD

Datos de la película

  • Calidad: Full 1080p
  • Audio: Español Latino AC3 5.1 BLURAY - Ingles AC3 5.1 BLURAY
  • Subtitulos: Español Latino PGS - Ingles PGS
  • Resolución: 1920x1080p
  • Formato: MKV
  • Codec: H.264
  • Encoder: CinefiloCool
  • Mediainfo: Clic para Mostrar Datos Ver
  • A.Thousand.and.One.2023.Bluray.FullHD.1080p.x264.Latino-CC@CMHDD.mkv
    Format                      : Matroska
    Format version              : Version 4
    File size                   : 6.53 GiB
    Duration                    : 1 h 56 min
    Overall bit rate            : 8 001 kb/s
    Movie name                  : A Thousand and One (2023) CinemaniaHDD.Net
    Encoded date                : UTC 2024-01-19 02:54:55
    Writing application         : mkvmerge v56.1.0 ('My Friend') 64-bit
    Writing library             : libebml v1.4.2 + libmatroska v1.6.4
    Attachments                 : CINEMANIAHD.png

    Video
    ID                          : 1
    Format                      : AVC
    Format/Info                 : Advanced Video Codec
    Format profile              : High@L4.1
    Format settings             : CABAC / 4 Ref Frames
    Format settings, CABAC      : Yes
    Format settings, Reference  : 4 frames
    Codec ID                    : V_MPEG4/ISO/AVC
    Duration                    : 1 h 56 min
    Bit rate                    : 6 874 kb/s
    Width                       : 1 920 pixels
    Height                      : 1 080 pixels
    Display aspect ratio        : 16:9
    Frame rate mode             : Constant
    Frame rate                  : 23.976 (24000/1001) FPS
    Color space                 : YUV
    Chroma subsampling          : 4:2:0
    Bit depth                   : 8 bits
    Scan type                   : Progressive
    Bits/(Pixel*Frame)          : 0.138
    Stream size                 : 5.61 GiB (86%)
    Title                       : Full HD1080p [CinemaniaHDD]
    Writing library             : x264 core 163 r3059 b684ebe0
    Encoding settings           : cabac=1 / ref=4 / deblock=1:0:0 / analyse=0x3:0x133 / me=tesa / subme=11 / psy=1 / psy_rd=1.00:0.00 / mixed_ref=1 / me_range=24 / chroma_me=1 / trellis=2 / 8x8dct=1 / cqm=0 / deadzone=21,11 / fast_pskip=0 / chroma_qp_offset=-2 / threads=24 / lookahead_threads=6 / sliced_threads=0 / nr=0 / decimate=1 / interlaced=0 / bluray_compat=0 / constrained_intra=0 / bframes=16 / b_pyramid=2 / b_adapt=2 / b_bias=0 / direct=3 / weightb=1 / open_gop=0 / weightp=2 / keyint=240 / keyint_min=24 / scenecut=40 / intra_refresh=0 / rc_lookahead=60 / rc=crf / mbtree=1 / crf=19.0 / qcomp=0.60 / qpmin=0 / qpmax=69 / qpstep=4 / vbv_maxrate=62500 / vbv_bufsize=78125 / crf_max=0.0 / nal_hrd=none / filler=0 / ip_ratio=1.40 / aq=1:1.00
    Default                     : Yes
    Forced                      : Yes
    Color range                 : Limited
    Color primaries             : BT.709
    Transfer characteristics    : BT.709
    Matrix coefficients         : BT.709

    Audio #1
    ID                          : 2
    Format                      : AC-3
    Format/Info                 : Audio Coding 3
    Commercial name             : Dolby Digital
    Codec ID                    : A_AC3
    Duration                    : 1 h 56 min
    Bit rate mode               : Constant
    Bit rate                    : 640 kb/s
    Channel(s)                  : 6 channels
    Channel layout              : L R C LFE Ls Rs
    Sampling rate               : 48.0 kHz
    Frame rate                  : 31.250 FPS (1536 SPF)
    Compression mode            : Lossy
    Stream size                 : 535 MiB (8%)
    Title                       : Español Latino [CinemaniaHDD]
    Language                    : Spanish
    Service kind                : Complete Main
    Default                     : Yes
    Forced                      : Yes

    Audio #2
    ID                          : 3
    Format                      : AC-3
    Format/Info                 : Audio Coding 3
    Commercial name             : Dolby Digital
    Codec ID                    : A_AC3
    Duration                    : 1 h 56 min
    Bit rate mode               : Constant
    Bit rate                    : 448 kb/s
    Channel(s)                  : 6 channels
    Channel layout              : L R C LFE Ls Rs
    Sampling rate               : 48.0 kHz
    Frame rate                  : 31.250 FPS (1536 SPF)
    Compression mode            : Lossy
    Stream size                 : 374 MiB (6%)
    Title                       : Ingles [CinemaniaHDD]
    Language                    : English
    Service kind                : Complete Main
    Default                     : No
    Forced                      : No

    Text #1
    ID                          : 4
    ID in the original source m : 4611 (0x1203)
    Format                      : PGS
    Muxing mode                 : zlib
    Codec ID                    : S_HDMV/PGS
    Codec ID/Info               : Picture based subtitle format used on BDs/HD-DVDs
    Duration                    : 1 h 54 min
    Bit rate                    : 769 b/s
    Count of elements           : 56
    Stream size                 : 648 KiB (0%)
    Title                       : Forzados-PGS [CinemaniaHDD]
    Language                    : Spanish
    Default                     : No
    Forced                      : No
    Original source medium      : Blu-ray

    Text #2
    ID                          : 5
    ID in the original source m : 4610 (0x1202)
    Format                      : PGS
    Muxing mode                 : zlib
    Codec ID                    : S_HDMV/PGS
    Codec ID/Info               : Picture based subtitle format used on BDs/HD-DVDs
    Duration                    : 1 h 55 min
    Bit rate                    : 28.2 kb/s
    Count of elements           : 2650
    Stream size                 : 23.4 MiB (0%)
    Title                       : Español-PGS [CinemaniaHDD]
    Language                    : Spanish
    Default                     : No
    Forced                      : No
    Original source medium      : Blu-ray

    Text #3
    ID                          : 6
    ID in the original source m : 4608 (0x1200)
    Format                      : PGS
    Muxing mode                 : zlib
    Codec ID                    : S_HDMV/PGS
    Codec ID/Info               : Picture based subtitle format used on BDs/HD-DVDs
    Duration                    : 1 h 50 min
    Bit rate                    : 43.7 kb/s
    Count of elements           : 3506
    Stream size                 : 34.5 MiB (1%)
    Title                       : Ingles [CinemaniaHDD]
    Language                    : English
    Default                     : No
    Forced                      : No
    Original source medium      : Blu-ray

    Text #4
    ID                          : 7
    Format                      : UTF-8
    Codec ID                    : S_TEXT/UTF8
    Codec ID/Info               : UTF-8 Plain Text
    Duration                    : 1 h 54 min
    Bit rate                    : 1 b/s
    Count of elements           : 28
    Stream size                 : 973 Bytes (0%)
    Title                       : Forzados-SRT [CinemaniaHDD]
    Language                    : Spanish
    Default                     : Yes
    Forced                      : Yes

    Text #5
    ID                          : 8
    Format                      : UTF-8
    Codec ID                    : S_TEXT/UTF8
    Codec ID/Info               : UTF-8 Plain Text
    Duration                    : 1 h 51 min
    Bit rate                    : 45 b/s
    Count of elements           : 1324
    Stream size                 : 36.9 KiB (0%)
    Title                       : Español-SRT [CinemaniaHDD]
    Language                    : Spanish
    Default                     : No
    Forced                      : No

    Menu
    00:00:00.000                : Chapter 01
    00:05:46.929                : Chapter 02
    00:11:08.209                : Chapter 03
    00:14:44.133                : Chapter 04
    00:19:05.477                : Chapter 05
    00:28:33.211                : Chapter 06
    00:33:18.788                : Chapter 07
    00:37:06.682                : Chapter 08
    00:40:52.116                : Chapter 09
    00:48:21.064                : Chapter 10
    00:53:25.368                : Chapter 11
    01:00:51.522                : Chapter 12
    01:07:15.364                : Chapter 13
    01:16:39.094                : Chapter 14
    01:20:57.978                : Chapter 15
    01:27:54.560                : Chapter 16
    01:35:27.596                : Chapter 17
    01:40:24.268                : Chapter 18
    01:48:39.054                : Chapter 19
    01:50:52.646                : Chapter 20

  • Peso: 6.53 GiB

Sinopsis

Descargar Mil uno (2023) Full HD 1080p Latino-CMHDD. Luchando pero sin disculparse por vivir en sus propios términos, Inez se muda de refugio en refugio a mediados de la década de 1990 en la ciudad de Nueva York. Con su hijo Terry de 6 años en un hogar de acogida y sin poder dejarlo de nuevo, lo secuestra para que puedan construir su vida juntos. A medida que pasan los años, su familia crece y Terry se convierte en un adolescente inteligente pero tranquilo, pero el secreto que ha definido sus vidas amenaza con destruir el hogar que han construido de manera tan improbable.

Ficha técnica

Video trailer de la película

Enlaces de descarga

Rip de Bluray

Descargar Mil uno (2023) Full HD 1080p Latino-CMHDD




Aportes de DPeliculasHDmega la pass es:dpeliculashdmega.org Aportes de CinemaniaHD la pass es:cinemaniahdd.com Aportes recientes:cinemaniahdd.net

Películas relacionadas

descargar Mil uno (2023) Full HD 1080p Latino-CMHDD Full 1080p 1080p gratis, Mil uno (2023) Full HD 1080p Latino-CMHDD Full 1080p mega 1 link, Mil uno (2023) Full HD 1080p Latino-CMHDD Full 1080p pelicula completa, descargar Mil uno (2023) Full HD 1080p Latino-CMHDD Full 1080p gratis en mega.

Mil uno (2023) Full HD 1080p Latino-CMHDD pelicula full hd, Mil uno (2023) Full HD 1080p Latino-CMHDD mega latino, Mil uno (2023) Full HD 1080p Latino-CMHDD 4k latino, Mil uno (2023) Full HD 1080p Latino-CMHDD pelicula completa, Mil uno (2023) Full HD 1080p Latino-CMHDD descargar gratis, descargar Mil uno (2023) Full HD 1080p Latino-CMHDD pelicula latino, Mil uno (2023) Full HD 1080p Latino-CMHDD 1 link mega, Mil uno (2023) Full HD 1080p Latino-CMHDD 1 link google drive, Mil uno (2023) Full HD 1080p Latino-CMHDD hd 1080p latino.
Comentarios 0